<?xml version="1.0" standalone="no"?>
<!DOCTYPE svg PUBLIC "-//W3C//DTD SVG 1.1//EN" "http://www.w3.org/Graphics/SVG/1.1/DTD/svg11.dtd" >
<svg xmlns="http://www.w3.org/2000/svg" xmlns:xlink="http://www.w3.org/1999/xlink" version="1.1">
<metadata>
Created by FontForge 20161013 at Sat Jun 11 22:37:02 2011
 By ,,,
Copyright (c) 2010 by Font Diner, Inc DBA Sideshow. All rights reserved.
</metadata>
<defs>
<font id="RockSalt" horiz-adv-x="736" >
  <font-face 
    font-family="Rock Salt"
    font-weight="400"
    font-stretch="normal"
    units-per-em="1024"
    panose-1="0 0 0 0 0 0 0 0 0 0"
    ascent="819"
    descent="-205"
    x-height="600"
    cap-height="958"
    bbox="-346 -787 1952 1623"
    underline-thickness="51"
    underline-position="-152"
    unicode-range="U+0020-FB02"
  />
<missing-glyph horiz-adv-x="420" 
 />
    <glyph glyph-name=".notdef" horiz-adv-x="420" 
 />
    <glyph glyph-name=".null" horiz-adv-x="0" 
 />
    <glyph glyph-name="nonmarkingreturn" horiz-adv-x="341" 
 />
    <glyph glyph-name="space" unicode=" " horiz-adv-x="420" 
 />
    <glyph glyph-name="exclam" unicode="!" horiz-adv-x="314" 
d="M263 838q0 -21 -3 -42.5t-3 -41.5v-14q0 -6 2 -12q-10 -39 -15 -78.5t-13 -80.5q-5 -27 -12 -54q-2 -7 -4.5 -14t-4.5 -14q-2 -8 -3.5 -17t-3.5 -17q-5 -17 -10 -33.5t-10 -33.5q-9 -30 -19.5 -60t-19.5 -60t-15 -61t-6 -62q0 -5 5.5 -9.5t12.5 -8.5t14.5 -7.5t10.5 -6.5
v-9q0 -15 -6 -23.5t-14 -14.5t-16.5 -12t-13.5 -16q-3 1 -7 2t-8 1q-10 0 -19.5 -5t-20.5 -5t-18 9.5t-17 14.5q-1 26 -8.5 50.5t-7.5 50.5q0 21 3.5 30t12.5 27q0 3 -0.5 6t-0.5 6q0 15 4.5 28.5t3.5 28.5q12 22 19.5 47t14.5 50.5t15 50t22 45.5q1 16 6 30t5 29q0 9 -3 17
q11 13 13 34t1 38q5 11 7.5 22.5t6.5 23.5q0 4 -0.5 8t-0.5 8q0 23 5.5 45t5.5 45q0 30 -17 48q-1 4 -1 8v9q0 18 6.5 34.5t5.5 34.5q10 5 19.5 9t20.5 4q24 0 42 -17t33 -32q4 -15 4 -33zM199 -272q0 -5 -1 -9.5t-3 -9.5q-14 -5 -27.5 -7.5t-27.5 -6.5q-8 -9 -14.5 -19.5
t-21.5 -13.5q-21 7 -33.5 26t-12.5 42q0 20 7 30.5t16 17t16 13.5t7 19q5 1 12 1q14 0 22 -10.5t17 -19.5q6 -6 13.5 -11.5t14 -12t11.5 -13.5t5 -16z" />
    <glyph glyph-name="quotedbl" unicode="&#x22;" horiz-adv-x="490" 
d="M490 963q0 -19 -5.5 -37t-19.5 -32q-7 -32 -15 -63.5t-16 -63.5q-3 -16 -5.5 -31.5t-6.5 -30.5q-2 -7 -5.5 -15t-8.5 -11v-25q-6 -7 -9 -15t-9 -13q3 -9 3 -18q0 -15 -7 -29.5t-7 -26.5q0 -20 7.5 -37t7.5 -36q0 -22 -15.5 -37.5t-31.5 -27.5q-3 5 -9.5 6.5t-11.5 0.5
q-17 32 -30.5 61t-13.5 66q0 35 11.5 73t20.5 72q5 18 11 34.5t11 34.5q5 20 9 39.5t9 39.5q7 23 13.5 45.5t11.5 45.5q2 11 3.5 22.5t3.5 22.5q4 17 20 23.5t31 6.5q13 0 25 -3l24 -6q4 -16 4 -35zM220 880q0 -38 -8 -73.5t-18.5 -71t-19.5 -70.5t-10 -72q4 -8 7.5 -12
t7 -7.5t7 -8.5t7.5 -15q1 -4 6 -3.5t8 0.5q-5 -7 -7 -16.5t-4 -19.5t-6 -18t-12 -12q-19 -1 -37.5 -5t-38.5 -4q-18 0 -30 7t-18.5 18.5t-9.5 26.5t-3 30q0 31 7 61.5t15 60.5q5 17 11 33.5t11 33.5q6 24 9.5 49.5t15.5 48.5q0 8 -0.5 16t-0.5 16q0 23 5 41t21 34q13 5 27 5
q17 0 31 -8.5t25 -21.5q1 -11 1.5 -21.5t0.5 -21.5z" />
    <glyph glyph-name="numbersign" unicode="#" horiz-adv-x="1159" 
d="M1139 313q0 -8 -1 -12q-29 -10 -56.5 -17t-58.5 -12q-11 -2 -21.5 -6.5t-21.5 -7.5l-174 -49q-6 -2 -17 -5l-22 -6q-11 -3 -21 -6.5t-14 -5.5q-16 -8 -24.5 -33.5t-14 -56.5t-9 -60.5t-9.5 -46.5q6 -21 5.5 -43t4.5 -43q-11 0 -14.5 -6t-4.5 -13.5t-2 -16t-8 -14.5
q-19 1 -38.5 4.5t-39.5 2.5q-11 14 -15.5 31t-16.5 30l-1 3q0 5 5 4t7 -1l3 1q7 21 11 45.5t4 46.5v11q0 6 -1 12q10 22 16 45t6 47v4q-19 7 -35 7t-31 -4t-30.5 -8.5t-30.5 -9.5t-31 -6q-7 -1 -10.5 -4.5t-6 -8t-6 -8t-9.5 -4.5l1 2q0 4 -5 4.5t-7 0.5t-7 -1.5t-7 -2.5
q-17 -5 -29.5 -14.5t-12.5 -28.5q0 -4 0.5 -7t1.5 -7q2 -2 5 -2t7 3.5t11 3.5q2 0 3 -0.5t3 -0.5q0 -9 2.5 -14t5.5 -10l7 -9q4 -4 6 -10q-2 -15 -8 -29t-9 -28q-12 -6 -21.5 -13.5t-18.5 -15.5q-8 -3 -18 -3q-16 0 -31.5 5t-32.5 5q-14 18 -19.5 38t-5.5 43q0 17 2 32t4 31
q-23 6 -47 6q-18 0 -37 -2t-37 -2q-15 0 -29.5 2.5t-28.5 9.5q-7 11 -9 22.5t-2 25.5v17q0 9 1 17q17 14 37 17.5t40 3.5q19 0 38 -1.5t39 -1.5q21 0 42.5 4t40.5 18q1 14 5.5 28.5t18.5 21.5q5 32 16.5 63t33.5 55q0 14 -2.5 27t-0.5 27q-17 -2 -35.5 -2t-32.5 -12
q-15 5 -27 5q-22 0 -41.5 -7t-40.5 -7q-14 0 -23 4q-11 -6 -21.5 -9t-21.5 -8q-15 4 -30 4q-24 0 -46 -11h-3q-9 -1 -14 4t-16 3q3 6 3 14q0 15 -5.5 29t-7.5 29q4 5 10 7.5t12 4.5t11 5.5t7 10.5q7 1 10 -3t11 -4q6 0 19 6.5t17 11.5q4 -2 8.5 -3t8.5 -5h4q5 0 6 4.5t6 4.5
t9 -1t9 -1q12 0 23.5 2.5t22.5 2.5q3 0 7 -1t7 -3q6 4 15 4.5t13 6.5q20 0 39.5 3.5t38.5 8t38 8t39 1.5q5 2 8.5 7.5t8.5 7.5q10 39 21 77.5t11 78.5q0 17 -3 34q7 16 14 36q22 22 53 22q28 0 45 -22q-1 -5 -1 -15q0 -30 15 -57q-2 -32 -8 -62t-10 -59q6 -5 12 -6t13 -1
q22 0 43 6t43 4q25 8 50.5 10.5t49.5 10.5q5 8 7.5 20t11.5 16q-3 4 -3 10q0 19 10 35.5t10 35.5q0 6 -3 12q9 8 13.5 19t15.5 17q-3 3 -3.5 7t-0.5 7v15q7 6 13.5 14t13 15.5t14 12.5t18.5 5q20 0 31 -14.5t21 -28.5v-3q0 -15 -3.5 -26.5t-8 -21.5t-10.5 -20t-10 -22
q0 -23 -4 -35.5t-11 -33.5q15 -7 32 -7q22 0 42.5 6t42.5 6h7q4 0 9 -1q8 2 16.5 3.5t15.5 6.5q21 -4 36.5 -17.5t35.5 -18.5q1 -4 1 -12q0 -25 -14 -36t-33.5 -16.5t-40.5 -9.5t-35 -15q-13 3 -29.5 3.5t-27.5 7.5q-20 -8 -39.5 -10.5t-39.5 -4.5q-25 -17 -35.5 -40.5
t-10.5 -52.5q-16 -30 -24 -62t-19 -64q7 -3 18 -3q16 0 31 5.5t30 11.5q4 0 7.5 -0.5t8.5 -0.5q25 0 49 7.5t49 7.5q5 0 11 -1t11 -1q8 0 12 6t12 8q7 -3 18 -3t21 3.5t21 3.5q9 0 16 -4q14 7 28 7q16 0 27 -10.5t11 -27.5zM700 473q-8 4 -15.5 5t-15.5 1q-20 0 -40.5 -4
t-40.5 -4q-5 0 -10.5 0.5t-10.5 1.5q-3 -5 -4.5 -10t-6.5 -8h-20q-11 0 -22.5 -2t-21 -6.5t-15.5 -13.5t-13 -26t-15 -36l-15 -38q-7 -19 -14 -32v-5q0 -13 -4 -22.5t-9 -18t-9.5 -17t-6.5 -20.5h2q28 0 55 4.5t54 9.5l54 11q27 6 54 8q8 7 16.5 11t15.5 10q1 15 5.5 28.5
t9.5 27t9.5 27t4.5 28.5q7 10 14 14q-1 5 -1 15q0 16 5.5 31t10.5 30z" />
    <glyph glyph-name="dollar" unicode="$" horiz-adv-x="913" 
d="M862 182q-12 -29 -31 -50.5t-42.5 -38t-49.5 -29.5l-52 -26l-61 -31q-1 -1 -5 -1q-5 0 -8.5 2t-8.5 2q-20 -11 -41 -15.5t-43 -8t-43.5 -7t-41.5 -12.5q-7 -9 -11 -20t-13 -19q-12 -47 -30.5 -91t-39.5 -87l-42 -86q-21 -43 -36 -88q1 -4 1 -12q0 -19 -9 -36t-21 -31
q-8 1 -14 4t-14 3q-4 0 -7 -3q-8 13 -18 22.5t-18 20.5q6 15 9.5 36t8.5 42t13 39t23 27q-3 7 -3 15q0 18 9.5 38t22.5 33q-1 3 -1 8q0 19 6 37.5t12.5 37t12.5 36t6 35.5q0 2 -3.5 4.5t-4.5 6.5h-6q-11 0 -21 -4t-21 -4t-16 8q-41 -24 -88 -24q-44 0 -78 20q0 23 -3 47
q19 9 41 16t43 7q12 0 27 -5q24 4 50.5 6.5t53 6.5t51.5 11t46 19q4 -1 8 -1h10q36 0 70.5 10.5t69.5 15.5q15 8 27 13.5t30 4.5q19 8 38.5 14t36.5 18h6q17 0 28 10t23 18q14 10 28 17t15 26q-5 17 -17 28.5t-31 11.5q-11 0 -19 -4q-10 5 -23.5 10t-28 9t-28.5 7t-25 3
q-6 1 -12.5 0t-12.5 -1q-52 0 -102.5 8t-103.5 8q-13 0 -26 -1t-25 -3q-16 8 -34.5 12t-37.5 7t-37 7t-32 13q-5 1 -7 -1.5t-3 -6t-2.5 -6.5t-5.5 -3t-15 3t-15 5q-39 16 -62 50.5t-23 76.5q0 23 8 47q10 9 19.5 17t12.5 23q33 5 46 33q76 44 149 91t153 84q-3 9 -3 18
q0 6 2 12t9 10q-1 6 -1 12v12q0 31 6.5 61t15.5 59.5t17.5 59.5t11.5 61q6 12 9 25.5t4 27t1.5 27.5t2.5 27q11 9 24 9h25q7 0 12.5 0.5t10.5 1.5q11 -8 15 -19.5t14 -19.5q-5 -43 -16.5 -84.5t-24 -82.5t-23.5 -82.5t-15 -84.5q6 -2 9 -2q11 0 20.5 6.5t20.5 6.5q9 0 14 -4
q18 18 46 25.5t52 7.5q13 0 27 -2.5t26.5 -7.5t23 -14.5t16.5 -22.5q-1 -8 -4 -13t-6.5 -10t-6.5 -10.5t-3 -13.5q0 -2 0.5 -5t0.5 -6q-14 -8 -29.5 -17t-27.5 -21q-23 4 -44.5 9t-44.5 5q-7 0 -15.5 -5.5t-13.5 -8.5q-27 -3 -51 -12.5t-48 -20t-48 -19.5t-50 -13
q-17 -18 -36 -29t-43 -14q-13 -14 -27.5 -24t-30 -19t-31 -17.5t-30.5 -19.5q-8 -11 -18.5 -20t-20.5 -19q1 -19 9 -29.5t20 -18t25.5 -14.5t24.5 -17h3q17 0 34 -4.5t35 -4.5h10q6 0 11 2q6 -5 15 -7t18.5 -3t18.5 -2.5t17 -5.5q9 4 23 4q17 0 32.5 -3.5t32.5 -3.5
q6 0 12 2t11 2q4 0 5.5 -3t4.5 -5q9 2 18 2h18q55 0 115 -13t111 -32q17 -24 44 -37.5t53 -27.5q1 -11 6.5 -18t7.5 -18z" />
    <glyph glyph-name="percent" unicode="%" horiz-adv-x="1207" 
d="M916 695q-6 -10 -10 -22.5t-9.5 -24.5t-13 -21.5t-20.5 -13.5v-7q0 -10 -4.5 -15t-2.5 -18q-35 -37 -63 -78.5t-63 -78.5q-2 1 -6 1q-7 0 -10.5 -3.5t-7.5 -3.5q-3 0 -5 2q-16 -20 -30 -41t-29 -41t-31.5 -39.5t-35.5 -36.5q-11 -26 -27.5 -49t-34.5 -45t-34 -45t-25 -50
q-5 0 -7.5 -2.5t-7.5 -2.5q-11 -27 -24.5 -50.5t-26 -47.5t-21 -50t-8.5 -58v-12q0 -6 1 -11q10 -11 22 -21t12 -25q0 -9 -4 -18t-4 -19q-16 -1 -31 -5t-30 -5q-17 11 -29 14t-32 7q-5 8 -8 17t-10 15q5 15 6 31t0.5 32t0 32t4.5 31q8 9 13 20.5t9 24.5t8 25t9 23
q3 0 4.5 2.5t2.5 5t3 4t8 0.5q18 49 48 91t56 88q8 4 14.5 10t13.5 11q5 13 13 24l17 22q9 11 16.5 22t11.5 25q11 5 17.5 14.5t12 19.5t12.5 19t19 12q2 16 9.5 26t16.5 19.5t16 20t8 27.5q3 -3 5 -3t3.5 1.5t6.5 1.5q7 14 17 27t20 25.5t19 26t15 29.5q8 1 13 4.5t12 6.5
v7q0 9 4 17t4 17q0 3 -1 5q-4 5 -9.5 6t-11.5 1q-7 -2 -11.5 -6t-10.5 -8h-43q-16 -11 -35 -16.5t-38.5 -9.5t-37.5 -9t-32 -15q-5 6 -17 6q-18 0 -36 -6.5t-36 -7.5v-7q0 -16 1 -32t1 -32q0 -8 -0.5 -15t-1.5 -14q-2 -11 -5.5 -13t-6.5 -8q-2 -7 -2.5 -13t-2.5 -12
q-5 -15 -14 -25.5t-20.5 -19.5t-23.5 -17.5t-23 -17.5q-5 0 -4 -5.5t-3 -8.5q-12 -10 -31.5 -19t-40.5 -17t-41.5 -17t-36.5 -19q-7 8 -16.5 10t-18.5 2q-16 0 -33 -5q-1 6 -5 9.5t-9.5 5t-11.5 2.5t-11 2q-23 23 -31.5 57.5t-8.5 66.5q0 36 9 69q8 2 13.5 9t10.5 13v25
q20 13 27 34t17 41t24 37t19 39q10 -1 11.5 6.5t6.5 14.5q6 5 10 10.5t11 7.5q2 13 9.5 20.5t12.5 19.5q12 4 24 12t23.5 16t22.5 15t20 10q5 2 12 2.5t12 0.5q18 0 34.5 -3t34.5 -3q4 -9 13.5 -13t15.5 -13q0 -2 0.5 -5t0.5 -6q0 -4 -0.5 -8t-0.5 -9q-11 -10 -20 -13.5
t-23 -1.5q1 -15 14 -23.5t30.5 -12t36 -4.5t29.5 -1q20 0 42.5 2.5t40.5 10.5q5 -2 11.5 -2.5t10.5 -5.5q4 3 8.5 6.5t9.5 3.5q4 0 10 -2q10 8 23.5 11.5t28 4t29 0.5t27.5 2t27 7l28 11q14 6 27.5 10.5t25.5 4.5q9 0 17.5 -1.5t17.5 -1.5q4 0 7 0.5t7 1.5q9 -8 16.5 -14
t13.5 -13t9.5 -16t3.5 -22zM1136 136q0 -16 -2 -32t-2 -32q-8 -11 -11.5 -22t-10.5 -21q-6 -9 -14 -15.5t-16.5 -13.5t-16.5 -15.5t-13 -20.5q-31 -9 -43 -36q-31 -14 -60 -31t-55 -37q-17 2 -21.5 -1t-11.5 -17q-3 0 -5.5 0.5t-5.5 0.5q-15 0 -31.5 -5.5t-29.5 -13.5
q-17 0 -33.5 -1t-33.5 -1q-27 0 -51.5 6.5t-42.5 28.5q-8 29 -10.5 58t-4.5 59q9 23 21.5 43t18.5 43q5 2 9 5.5t9 6.5q4 19 14.5 32.5t23 25t24 23.5t18.5 29q9 1 14.5 5t16.5 2q8 3 9.5 10t5.5 12h4q16 0 27 8.5t25 8.5q6 0 12 -3q17 8 32 18.5t33 17.5q8 0 16.5 0.5
t17.5 0.5q24 0 44.5 -5t39.5 -25q28 -2 44 -15t34 -31q2 -8 3.5 -18.5t8.5 -16.5v-15zM1039 141q0 2 -0.5 4.5t-0.5 5.5q-13 9 -27 15.5t-30 8.5q-6 -8 -14.5 -12.5t-17.5 -8.5t-18 -9t-15 -13v-7q0 -13 -7 -29q-12 0 -18.5 -4t-10.5 -11t-7 -15t-7 -16q-17 5 -30 16.5
t-30 15.5q-11 -8 -19.5 -17.5t-24.5 -11.5q-3 -16 -9 -31.5t-12 -31.5t-10.5 -32t-4.5 -33v-8q8 -2 11.5 -7t11.5 -7q14 2 27.5 7.5t27 11.5t27 10.5t28.5 6.5q2 5 5 10.5t9 7.5q9 0 19 4.5t20 11t20 12.5t20 8q8 14 17.5 21.5t25.5 7.5q18 23 31 56t13 63zM325 524v3
q-9 12 -9 25q0 5 0.5 9t0.5 9q0 4 -3 8.5t-6.5 9.5t-6 12t-1.5 16q-9 3 -15.5 9.5t-12 13.5t-11.5 12.5t-15 5.5q-7 0 -10 -1q-10 -16 -20.5 -26.5t-12.5 -30.5q-20 -11 -25.5 -30t-10.5 -39q-6 -2 -7.5 -5.5t-9.5 -1.5q-5 -27 -14 -53.5t-9 -54.5q0 -40 37 -54q5 4 9 8
t11 4q5 0 6.5 -3.5t6.5 -3.5h3q9 5 16 10l14 11q7 6 16 9.5t21 4.5q7 12 16.5 23t17.5 22t14 23t6 28q0 5 -2 9.5t-2 9.5q0 4 4 4t4 4z" />
    <glyph glyph-name="ampersand" unicode="&#x26;" horiz-adv-x="1044" 
d="M1024 389q-3 -8 -8 -13.5t-10.5 -11.5t-9.5 -12.5t-5 -15.5q-30 -20 -55.5 -45t-51.5 -48h-2q-2 0 -4.5 -1.5t-5.5 -2.5l-3 4q-17 -14 -32 -31t-28 -34h-6q-8 0 -13.5 -4.5t-13.5 -2.5q-10 -7 -15.5 -18t-16.5 -18q18 -11 34.5 -24.5t26.5 -32.5q10 -2 19 -7.5t17 -11.5
t16.5 -11t19.5 -7q14 -24 43 -32q26 -21 40 -56t14 -69q0 -24 -8 -47.5t-25 -42.5q6 -3 6 -8t-1 -8.5t-1 -8.5q-14 -13 -37 -13q-8 0 -17 1.5t-18 3.5v10q0 9 -1 18t-1 17q0 13 3 18t6.5 9t6.5 10.5t3 22.5q0 8 -1.5 21t-6 25t-12 20.5t-18.5 8.5q-3 13 -11 21t-18.5 14
t-21 11.5t-18.5 14.5q-5 0 -8 -2t-8 -2h-5q-3 -1 -5.5 2t-5.5 6l-5 7q-2 4 -5 4q-2 0 -4.5 -1t-4.5 -1q-4 0 -7 6.5t-6 9.5q-9 8 -24 15t-27 7q-14 0 -22 -9t-13 -20h-3q-6 1 -10 -3t-12 -2q-15 -15 -30 -30.5t-24 -36.5q-9 0 -14.5 -4.5t-10 -10.5t-9 -11t-10.5 -5
q-4 0 -6 2q-12 -19 -28.5 -34t-34.5 -28l-36 -27q-18 -14 -34 -30q1 -5 4.5 -5.5t3.5 -5.5l-1 -3q-2 -2 -4 -2t-4 1.5t-6 1.5h-3l-1 -1q-12 -12 -28.5 -20t-33 -15.5t-30.5 -17.5t-22 -26q-5 3 -9 3q-10 0 -13 -8.5t-10 -8.5q-2 0 -4.5 0.5t-4.5 0.5q-1 -1 -2 -1
q-5 -3 -9 -8.5t-8 -10.5t-8.5 -8t-10.5 -2q-5 -4 -6.5 -11.5t-4.5 -12.5q-6 1 -9 4t-9 3q-14 -11 -32 -15t-37 -5t-38.5 -0.5t-35.5 -1.5q-30 10 -54.5 26t-35.5 46q-2 4 -4.5 12.5t-2.5 12.5q0 31 7 60.5t18 58t24.5 56t25.5 54.5q9 0 12.5 6t12.5 5v25h14q0 2 -0.5 4
t-0.5 4q0 12 5.5 19t11.5 12.5t10.5 11.5t2.5 17q12 6 21 14.5t17.5 18t18 17.5t22.5 12q2 4 1.5 6.5t-0.5 7.5t3 10q58 48 113.5 97t115.5 97v3q-1 5 1.5 8.5t2.5 8.5q0 7 -5 15.5t-12.5 16.5t-15.5 14.5t-14 9.5q-2 22 -12.5 35.5t-27.5 24.5v22q-19 22 -31 49.5t-20 57
t-15 59t-16 56.5q1 6 3 11.5t2 11.5q0 10 -9 10q7 9 8.5 23t3.5 28.5t7.5 26.5t20.5 15q0 9 5 14.5t5 13.5q16 11 33.5 19t28.5 24q8 1 14.5 3.5t13 5.5t13.5 5t16 1q11 9 25.5 14t28.5 8.5t27.5 8t22.5 12.5q9 -1 18 -1.5t18 -0.5q15 0 30.5 1t30.5 1q8 -10 19.5 -14.5
t24 -7.5t25 -6.5t21.5 -10.5t11.5 -18t13.5 -15v-6q0 -17 4 -31.5t10 -29.5v-13q0 -38 -6 -73.5t-14.5 -69.5t-17.5 -68.5t-15 -70.5q-19 -18 -28.5 -43.5t-15.5 -50.5q-14 -6 -18 -19.5t-14 -23.5q-2 -2 -5.5 -4t-6.5 -4q-12 -8 -22.5 -18t-15.5 -24q3 -14 9.5 -25.5
t14 -21.5t15.5 -20t14 -22h14q3 -3 3.5 -7t0.5 -7q14 -3 22.5 -12t17 -18.5t19 -16.5t28.5 -7q7 14 18.5 24t24 19.5t23 20t16.5 26.5q20 7 36 20t25 33q14 6 25.5 15.5t17.5 24.5q10 0 13.5 5t11.5 9q2 13 7.5 22t12 16.5t14 15.5t13.5 18q3 0 6 0.5t5 0.5q8 0 14 -1.5
t14 -1.5q5 0 11 2q10 -11 21.5 -20t25.5 -16q-3 -6 -3 -13q0 -8 3.5 -14.5t6.5 -12.5zM568 124q-1 8 -6.5 12t-5.5 12q0 3 0.5 5t0.5 4q-18 8 -32 21.5t-27.5 27.5t-29 26t-36.5 18v3q0 9 -6.5 11.5t-14.5 2.5q-15 -11 -29.5 -21t-30.5 -21q-7 -5 -15.5 -9t-14.5 -9
q-4 -3 -6.5 -10.5t-4.5 -11.5q-18 -2 -28.5 -12t-25.5 -16v-15q-14 -8 -23.5 -20.5t-18.5 -25t-19 -24.5t-25 -20q0 -7 -2.5 -10t-0.5 -11q-17 -11 -31 -21.5t-16 -33.5q-23 -19 -36 -46.5t-29 -53.5q-1 -13 -6.5 -24.5t-12 -22t-12 -21.5t-5.5 -23q0 -8 3.5 -16t8.5 -15h3
q7 0 12 3.5t9 8t8 8.5t10 4q5 0 8 -2l-1 6q0 4 1.5 8t6.5 4q7 0 9 -2.5t8 -4.5q32 15 62.5 33t63.5 32q4 11 10 16t13.5 7.5t14.5 4.5t13 7q5 5 5 13.5t2 11.5q5 2 9.5 4t9.5 2q3 0 9 -2q22 18 47 33.5t39 41.5q24 15 46 29t42.5 29.5t39.5 33.5t37 41zM572 800
q0 15 -3.5 30t-14.5 26q4 0 4 4q0 3 -2.5 5.5t-1.5 7.5q-14 6 -29 6q-21 0 -42.5 -6t-43.5 -3q-20 -14 -44.5 -22t-46 -18.5t-36 -28t-14.5 -50.5v-11q0 -5 1 -10q3 -5 4.5 -12.5t6.5 -12.5q-2 -6 -5 -9t-2 -9q7 -6 7 -16q0 -7 -4 -17q8 -15 15 -26t7 -31q10 -17 21.5 -32.5
t18.5 -35.5q11 -8 18 -23t14.5 -30t16 -27t22.5 -13q6 4 9 9.5t6.5 10.5t8.5 7.5t15 1.5v17q19 13 30 35t19 46t16 48.5t21 42.5q-5 18 -5 33q0 29 6.5 56.5t6.5 56.5z" />
    <glyph glyph-name="quotesingle" unicode="'" horiz-adv-x="263" 
d="M263 901q-3 -26 -10 -55t-26 -48q-1 -16 -7.5 -31t-13 -29.5t-11.5 -29t-4 -29.5q-14 -7 -15 -21t-1 -28q0 -18 2.5 -35t6.5 -34q-10 -23 -28.5 -36.5t-38.5 -24.5q-18 3 -30.5 11.5t-21 21t-14.5 27.5t-10 30q6 43 19.5 84t28.5 81t28.5 81t20.5 84q19 15 43 16.5
t46 4.5q10 -10 20 -18.5t16 -21.5z" />
    <glyph glyph-name="parenleft" unicode="(" horiz-adv-x="428" 
d="M408 -302q-15 -6 -30 -6q-17 0 -33.5 4t-33.5 6q-8 7 -14 11t-18 3q-18 21 -47 32q-14 15 -28.5 28t-28.5 27l-29 31q-5 6 -9.5 10.5t-8.5 9.5q-14 19 -25.5 41t-31.5 36q-4 20 -11 39t-13.5 38t-11.5 38t-5 40v12q0 6 2 13q-3 6 -4 15.5t-8 12.5q9 18 9.5 39t0.5 40v15
q0 10 2 14q0 4 4 10q3 8 4.5 17.5t3.5 18.5q2 15 4 34t5 38.5t8 37.5t14 30q3 32 12.5 60.5t21.5 56t23.5 55.5t17.5 59l14 7v4q0 7 3 12t6.5 9.5t6.5 10t2 14.5q11 10 20.5 19.5t11.5 26.5l22 14q11 7 18 19q10 7 21 7q9 0 18.5 -5t18.5 -11t18.5 -12t19.5 -8q-2 -5 -3 -9
t-1 -9q0 -9 2.5 -18t2.5 -17q0 -15 -8 -26q-7 -4 -13.5 -7t-15.5 -4q-1 -3 -4 -7.5t-5.5 -9t-4.5 -9t0 -6.5q-13 -7 -21 -19t-22 -17q-3 -15 -10 -27l-13 -24q-6 -12 -11 -25.5t-5 -31.5q-16 -27 -25.5 -57.5t-18.5 -61.5q-3 -10 -7.5 -21t-5.5 -21q-5 -15 -5.5 -31.5
t-2.5 -31.5q-5 -38 -9 -75t-4 -75q0 -27 3 -54t11 -52q4 -14 11.5 -25.5t12.5 -25.5q10 -23 17.5 -47.5t22.5 -45.5q13 -17 27.5 -32t25.5 -32q19 -5 30 -18.5t25 -24.5q6 -2 14.5 -2.5t13.5 -4.5l12 -14q13 -12 25 -23.5t17 -31.5z" />
    <glyph glyph-name="parenright" unicode=")" horiz-adv-x="477" 
d="M354 193q0 -48 -6 -84.5t-22 -79.5q-1 -2 -1 -5q0 -5 2 -8.5t2 -8.5q-10 -15 -16.5 -31t-12.5 -32t-13 -32t-16 -31q-5 -3 -5.5 -6t-8.5 -1q-6 -23 -17 -43t-24.5 -39t-26 -38.5t-21.5 -41.5q-8 -5 -18 -3q-8 -26 -27.5 -45.5t-48.5 -19.5q-16 0 -32 8q-5 13 -12 24
t-10 26q3 8 12 10t14 7q6 27 29 40q-1 2 -1 7t1.5 9t2.5 9q13 12 21.5 26.5t16.5 29.5t16.5 29.5t21.5 26.5q0 14 5.5 22t15.5 17v18q10 10 17.5 26t14 33.5t11.5 35t10 31.5q1 1 1 5t-2 7.5t-2 8.5q9 15 10.5 32t11.5 33q-4 5 -4.5 11.5t-2.5 12.5q2 12 3 24t1 24
q0 21 -2.5 42.5t-5.5 43.5l1 3q0 5 -5.5 5.5t-6.5 5.5q2 6 3 12.5t4 11.5q-7 14 -11 31.5t-8.5 35t-10.5 33t-17 26.5q4 7 4 15q0 2 -4 12t-5 13q-4 11 -7 21.5t-5 21.5q-9 12 -16 25.5t-13.5 27.5t-15 26.5t-20.5 21.5v3q0 5 -3 7.5t-1 10.5l-24 15q-5 12 -11.5 24t-6.5 26
q0 6 3 14q3 2 7 2.5t8.5 1t8.5 1.5t5 5q21 -8 38 -20t32 -26.5t29 -30t30 -30.5q3 -20 12 -35.5t24 -29.5q16 -47 35 -92.5t33 -93.5q32 -114 32 -230z" />
    <glyph glyph-name="asterisk" unicode="*" horiz-adv-x="816" 
d="M801 334q-5 -4 -13 -3.5t-13 0.5h-3q-8 -5 -12 -13.5t-12 -12.5q-29 6 -58 11t-57 16q-8 3 -14 6.5t-12 6.5h-4q-6 0 -8 -4t-7 -3h-2q-3 8 -11.5 11t-17.5 5t-17 5.5t-9 14.5q-6 -2 -11 -2q-10 0 -18 4t-15.5 9.5t-15 9.5t-16.5 4q-6 0 -10 -1q-8 17 -18.5 22t-27.5 7
q-28 -55 -63 -105.5t-73 -98.5h-9q-8 0 -15.5 -2.5t-15.5 -4.5q-17 2 -27.5 13t-25.5 16q-2 10 -2 16q0 17 6 32t6 32q0 11 -7 23q2 2 6 2q5 0 10 -1.5t10 -3.5q10 10 17.5 23.5t15 26t17 23t24.5 16.5q2 14 8 24t13 18.5t13 18t9 22.5q-2 7 -8 11t-12.5 7t-13.5 6t-12 8
q-23 3 -43.5 10.5t-40.5 16.5t-40 18.5t-41 15.5q-11 10 -24 17t-23 19q-2 0 -3 -0.5t-3 -0.5q-5 0 -9 1.5t-9 2.5q-12 14 -14.5 29.5t-4.5 32.5q12 4 22 10t21 11q34 -10 66 -25t63.5 -31t63 -31t65.5 -24q5 8 7 17t2 17q0 16 -4 27q2 23 3 44t1 44q0 13 -0.5 26t-3.5 26
q7 1 9 8.5t5 13.5q-2 8 -4 17t-3 19q5 7 8 16t7 16.5t10.5 12.5t18.5 5h2q11 -8 25 -14t22 -19q-1 -39 -2 -77.5t-1 -78.5q0 -42 3 -85q22 9 40 22.5t35.5 28.5t35.5 29.5t39 24.5q8 9 15.5 18.5t16.5 17.5v10q0 13 5.5 19.5t13.5 17.5q11 -2 27.5 -3.5t32 -6t26.5 -14
t11 -25.5q0 -17 -7 -29.5t-17 -23.5t-20.5 -22t-17.5 -24q-11 0 -18.5 -5.5t-13.5 -12t-13 -11.5t-16 -3q-8 -3 -10.5 -11t-6.5 -14q-11 -3 -16 -10t-13 -12q-1 -5 -5 -7t-8.5 -4t-7.5 -5t-1 -9q-11 0 -21 -6.5t-18.5 -15.5t-15.5 -20l-13 -19q5 -18 22.5 -26t31.5 -17
q16 -9 30.5 -20t34.5 -12q6 -7 14 -11t17 -7.5t18 -7.5t15 -10q20 -2 36 -8t33 -17q16 0 31.5 -2.5t27.5 -9.5t20 -18.5t10 -30.5z" />
    <glyph glyph-name="plus" unicode="+" horiz-adv-x="904" 
d="M848 366q-8 -16 -22 -25t-25 -23q-16 1 -30.5 4t-30.5 3q-11 0 -23 -3.5t-20 -14.5q-40 8 -80.5 8.5t-80.5 2.5q-23 -14 -49.5 -16t-51.5 -9q-4 -23 -8 -46.5t-4 -46.5q0 -16 4 -34t18 -27q-1 -30 0 -54t-10 -53q-5 2 -9.5 4t-9.5 2q-9 0 -16 -6.5t-13 -15t-12.5 -16.5
t-15.5 -11q-22 6 -43 21q-3 14 -5.5 27.5t-2.5 27.5q0 16 5 34q-6 15 -8.5 30t-2.5 31q0 21 3 42.5t3 44.5q0 11 -1 21.5t-5 21.5q-18 -2 -35.5 -2t-35 -1t-34.5 -4.5t-34 -11.5q-11 7 -26 7q-9 0 -18 -2t-19 -2q-11 0 -23 5q-13 26 -31.5 46.5t-30.5 46.5q45 6 89 8t89 4
q8 0 20 0.5t24.5 0.5t24.5 0.5t19 1.5q8 2 12 8.5t13 8.5q-3 25 -5 55t-4 60.5t-6 59.5t-13 52q2 11 6.5 21t7.5 22q8 1 15.5 5t16.5 4q5 0 16.5 -4.5t24 -10.5t23.5 -12.5t14 -10.5v-5q0 -17 3.5 -31.5t8.5 -29.5l4 -10q2 -5 3 -10t1 -11v-10q0 -20 -2.5 -39.5t-2.5 -38.5
q0 -10 1.5 -27t5.5 -24q2 -6 7.5 -7.5t6.5 -7.5q30 8 64 7t65 1l16 2q8 1 16 3q5 1 11.5 3t11.5 2q27 0 54 -5.5t56 -5.5q28 0 51 8q17 -8 36.5 -17t28.5 -26z" />
    <glyph glyph-name="comma" unicode="," horiz-adv-x="211" 
d="M98 -7q0 -13 -6 -16.5t-8 -12.5q-3 -12 -5.5 -25t-6.5 -25q-20 -61 -56.5 -106t-78.5 -91q-14 -3 -26 -3q-13 0 -22 5t-20 13q-1 7 -1.5 13.5t-0.5 13.5v19q0 10 2 18q2 11 9 17t8 19q2 -1 4 -1q5 0 8 3t7 1q26 39 45 81.5t31 87.5q-5 17 -9 33t-13 32q6 9 8.5 20.5t7 22
t14 17.5t28.5 7t38 -9.5t33 -22.5q-1 -2 -1 -7q0 -11 5.5 -18.5t5.5 -17.5t-2.5 -20t-2.5 -21q0 -8 2.5 -16t2.5 -11z" />
    <glyph glyph-name="hyphen" unicode="-" horiz-adv-x="795" 
d="M713 297q-10 -1 -17.5 -5t-15.5 -6q1 -1 1 -3q0 -6 -3 -8.5t-1 -10.5q-15 -8 -31 -12t-32.5 -7t-32.5 -7t-30 -13v11q-12 -7 -23 -7q-10 0 -19 3.5t-20 3.5q-5 0 -13 -4q-10 1 -15.5 5.5t-13.5 9.5q-5 -10 -14.5 -12.5t-17.5 -2.5q-11 0 -20.5 1t-18.5 3q-16 -5 -30 -5.5
t-30 -0.5q-14 0 -26.5 -1.5t-25.5 -7.5q-4 10 -17 10q-6 0 -12.5 -0.5t-12.5 -0.5q-10 0 -15 6q-4 -2 -3.5 -7t-0.5 -8q-15 6 -32 6q-14 0 -27 -3t-26 -3q-7 0 -14 2t-12 2q-6 0 -9 -2.5t-5.5 -5t-6 -5t-9.5 -2.5q-11 0 -15 6.5t-12 8.5q0 10 -3 18t-7 16.5t-7 16.5t-3 18
q0 3 0.5 6.5t0.5 6.5q14 20 40.5 28.5t48.5 8.5q11 0 16.5 -4t13.5 -11q70 8 140.5 11t140.5 7q23 2 46 3.5t46 3.5q3 0 4 2.5t1.5 5.5t2 5t5.5 2q11 0 15 -6.5t12 -8.5q7 4 16.5 6t18.5 3.5t17.5 4t14.5 8.5q8 1 9 -3.5t6 -6.5q5 1 11 2.5t11 1.5h7q4 0 7 -1
q9 -20 23.5 -36t23.5 -36z" />
    <glyph glyph-name="period" unicode="." horiz-adv-x="249" 
d="M146 130q0 -15 -5.5 -28.5t-12.5 -26.5l-14 -26q-7 -13 -11 -27l-4 1q-14 0 -27 -3.5t-26 -7.5t-26.5 -8t-27.5 -4q-2 14 -8.5 25t-23.5 11q-3 8 -3.5 17t-0.5 17.5t-1.5 17t-5.5 16.5q18 14 30 33.5t27 35.5q12 -3 25 -3q15 0 30 3.5t30 3.5q16 0 30 -8q3 -5 4 -11
t3.5 -11.5t6 -9.5t11.5 -4v-3z" />
    <glyph glyph-name="slash" unicode="/" horiz-adv-x="455" 
d="M547 797q-2 -24 -8.5 -46.5t-15 -44.5t-17 -43.5t-12.5 -45.5h-4q-3 0 -5.5 -1t-5.5 -3q0 -1 -0.5 -2t-0.5 -2q0 -4 1.5 -7t1.5 -5t-0.5 -2.5t-1.5 -2.5q-33 -55 -59 -113t-55 -115q-12 -23 -24.5 -45t-26.5 -44q-5 -8 -10.5 -15t-10.5 -15q-2 -2 -2.5 -7t-0.5 -7
q0 -6 3 -12q-10 -1 -14 -7t-12 -10v-3q1 -8 -3.5 -15t-3.5 -15q-18 -18 -29 -42t-24 -46q-5 -9 -11 -16.5t-11 -14.5q-5 -8 -9 -18.5t-8 -19.5q-5 -12 -19.5 -42.5t-30 -64t-28 -62t-12.5 -37.5q-1 -8 -0.5 -15.5t0.5 -15.5q-13 -12 -23 -25t-24 -22q-14 5 -27 12t-27 13
q-6 10 -8 20.5t-10 18.5q0 11 4.5 20.5t4.5 19.5q0 6 -2 10q5 2 8.5 4.5t10.5 2.5q-1 3 -1 8q0 14 15 21q1 26 11 48.5t22 44.5l24 44q12 22 18 46q11 17 20 32.5t12 36.5q29 38 53.5 77.5t40.5 87.5q13 11 22 26.5t17 31.5t17 31t23 26q2 16 7.5 30.5t11.5 28.5l13 28
q7 14 11 30q16 23 28 49.5t21.5 54t18 55t18.5 53.5q-1 5 -1.5 9.5t-0.5 9.5q0 41 26.5 61.5t64.5 20.5q14 -11 26 -21.5t24 -21.5z" />
    <glyph glyph-name="zero" unicode="0" horiz-adv-x="883" 
d="M831 433q0 -63 -11.5 -122.5t-27.5 -119.5q-11 -11 -17 -22.5t-5 -27.5q-12 -3 -16 -14.5t-9 -21.5q-17 -11 -29.5 -25.5t-26.5 -28.5q-4 -4 -7.5 -9t-7.5 -8q-9 -7 -20 -12.5t-20 -11.5q-20 -13 -39 -27.5t-37 -31.5q-43 -17 -82.5 -38.5t-78.5 -47.5h-25
q-13 -8 -24 -13t-26 -5q-20 -13 -44 -21.5t-49 -15.5t-50 -13t-47 -14q-5 1 -9.5 2.5t-9.5 1.5q-14 0 -25.5 -6t-24.5 -9q-4 -2 -9 -1.5t-9 0.5q-26 0 -47 8.5t-45 13.5q-6 13 -17 25l-22 24q-11 12 -19.5 24.5t-10.5 27.5v10q0 11 -2 22t-5 22q7 18 14 38t15 39.5t18 37.5
t25 31q5 22 15.5 40.5t23 36t24.5 35.5t20 39q5 -1 6.5 2t3 6.5t3.5 5.5t8 0q0 10 4 16.5t8.5 12.5t8 12.5t4.5 15.5q7 3 11.5 9t8.5 12.5t8 12.5t12 9q2 13 7.5 22.5t12 17.5t13 16.5t10.5 19.5q6 5 14 3q14 28 33 53t39 49t40 48.5t35 51.5q14 8 26.5 19.5t20.5 26.5
q-20 38 -35 73.5t-15 80.5q0 7 1 14t2 15q17 23 33 38.5t47 15.5q30 0 58.5 -11t58.5 -11q15 -11 30.5 -19.5t32.5 -16.5l13 -5q8 -2 14 -5q6 -4 12.5 -9t12.5 -10q40 -33 74.5 -71.5t68.5 -78.5v-2q0 -16 7 -24.5t15 -19.5q0 -18 5 -32t13 -29q0 -14 0.5 -28.5t4.5 -28.5
q4 -10 5 -15q4 -14 4 -36v-38zM750 434q0 29 -3.5 53.5t-8.5 52.5q-4 24 -9.5 48t-16 46t-27 40t-40.5 31h-3q-3 0 -6.5 -4.5t-14.5 -4.5q-6 0 -11.5 2.5t-10.5 1.5h-4q-12 -6 -21 -9t-23 -1q-15 -14 -31.5 -25.5t-36.5 -17.5q-9 -18 -23 -31.5t-34 -18.5
q-4 -12 -11.5 -20.5t-16.5 -15t-19 -12.5t-18 -13q-8 -8 -12.5 -16.5t-12.5 -15.5q-11 -10 -19.5 -19t-16.5 -21q-7 -11 -13.5 -22t-7.5 -25q-29 -17 -46 -44l-34 -54q-7 -10 -14 -18l-14 -16q-3 -4 -3.5 -9t0.5 -10q-14 -10 -24 -23.5t-18.5 -28.5t-18 -29.5t-22.5 -25.5
q-8 -20 -18.5 -40.5t-27.5 -34.5q-17 -42 -32.5 -83t-21.5 -86q7 -7 14 -12.5t14 -12.5q1 -1 4 -1q5 0 7.5 3t6.5 3h2l2 -1q1 -7 6 -10t12 -4.5t14 -2.5t11 -5q22 7 49 10.5t53.5 8t51.5 12.5t43 23h11q10 0 14 -4q19 19 38 29t45 11q38 35 86.5 56.5t92.5 47.5q5 2 5 7.5
t5 6.5t8.5 0.5t7.5 -0.5q35 34 67.5 69.5t57.5 77.5q0 7 1.5 12.5t1.5 10.5q0 2 -1 4.5t-2 4.5q20 40 28.5 85.5t8.5 89.5zM519 794q-13 9 -31 16.5t-34 7.5q-17 0 -24.5 -9.5t-7.5 -25.5q0 -9 5 -14.5t2 -20.5q3 -2 8 -2q12 0 23 5t20.5 12.5t19 16t19.5 14.5z" />
    <glyph glyph-name="one" unicode="1" horiz-adv-x="556" 
d="M413 871q0 -20 -5 -38.5t-8 -38.5q-1 -2 -1 -7q0 -6 1 -11.5t3 -10.5q-10 -20 -15 -42.5t-9 -45.5l-8 -46q-4 -23 -11 -45v-3q0 -5 2.5 -9t2.5 -9v-4q-13 -42 -20 -86.5t-23 -82.5q2 -10 2 -15q0 -11 -2.5 -19.5t-6.5 -15.5l-7 -13q-3 -6 -5 -13q-1 -4 -1 -8v-8
q-1 -23 -2 -40t-14 -37q-1 -26 -5.5 -50t-12.5 -49q-5 -20 -12 -40t-10 -40q-2 -10 -0.5 -24.5t1.5 -25.5q0 -23 -1.5 -45.5t-6.5 -43.5q3 -15 11 -27.5t10 -27.5q3 -3 6 -3q2 0 4.5 1t5.5 1q4 0 6 -2q3 -8 3 -14q0 -12 -11 -21q1 -6 1 -10v-10q0 -7 -1.5 -18t-11.5 -11
q-5 0 -4.5 5.5t-4.5 7.5q-6 -2 -10 -2q-8 0 -13 3l-10 6q-5 3 -10.5 5.5t-13.5 1.5q-8 15 -17.5 28.5t-21.5 24.5q-7 24 -8.5 49.5t-10.5 48.5q1 1 3 6l4 10q2 5 3.5 10t1.5 7q0 6 -2 10.5t-3 9.5q7 23 9 50t13 47q1 10 2 23.5t3.5 26t7 24t13.5 19.5q-2 5 -2.5 11.5
t-0.5 11.5q0 24 5.5 46.5t12.5 45.5q2 7 4.5 14t4.5 15q1 2 0.5 4t-0.5 4q0 12 -3 23q6 4 8 10.5t3.5 14t3.5 14.5t7 12v5q0 35 10 68.5t18 66.5v4q0 4 -2 6t-2 6v2q2 9 5 17.5t5 17.5q5 22 6.5 44t9.5 43q-2 8 -2 16v16q0 23 2.5 44.5t7.5 43.5q2 8 5.5 21t3.5 20
q0 12 -3 24.5t-3 24.5q0 6 1 12t5 11q-7 13 -7 30q0 14 4 28.5t14 24.5h30q14 0 28 -4t21 -18q2 -3 4.5 -10.5t5 -16t4.5 -16t2 -11.5q0 -12 -6 -22q7 -8 8.5 -17.5t1.5 -19.5z" />
    <glyph glyph-name="two" unicode="2" horiz-adv-x="773" 
d="M1070 5q-6 -8 -15 -11t-18 -5t-18.5 -4.5t-16.5 -8.5q-2 -1 -2.5 -2t-2.5 -1q-3 0 -5.5 4.5t-7.5 6.5q-26 -14 -56 -24.5t-59.5 -22t-57.5 -25t-49 -33.5q-16 -2 -32.5 -7.5t-24.5 -21.5h-3q-4 0 -6 2.5t-6 2.5q-7 0 -9 -4t-2.5 -8.5t-1.5 -8.5t-6 -4q-2 0 -4 3.5
t-10 2.5q-37 -20 -77 -40.5t-69 -52.5q-2 2 -5 2h-3l-1 -1q-2 0 -3 1t-2 1q-23 -20 -48.5 -36.5t-51.5 -32.5t-51 -32.5t-47 -37.5q-14 -1 -28 -6t-27.5 -10t-27.5 -9.5t-28 -4.5q-26 0 -43 23q-3 -2 -5.5 -3t-5.5 -1q-8 0 -14.5 6.5t-17.5 4.5q-13 14 -18.5 35.5
t-13.5 39.5q2 39 13.5 75.5t14.5 75.5q9 9 14 20.5t9.5 24t9.5 24.5t14 20q6 30 20 57t19 58q8 5 13.5 12t12.5 13v6q0 8 -4 12q7 18 15.5 34t16.5 32t14 33t8 37q8 7 12 17.5t7.5 21t8 19.5t15.5 14q-1 2 -1 5q0 10 5.5 18t5.5 17q0 5 -3 10q20 42 39 82.5t29 86.5
q10 5 12 15t9 18v5q0 17 7.5 38t18.5 35q5 35 11.5 73.5t20.5 70.5q-2 7 -5.5 14t-5.5 15q-25 -14 -57 -25q-6 -2 -13 -3.5t-12 -4.5q-6 -2 -7 -9.5t-1 -12.5q-12 0 -19 -5t-13.5 -11.5t-13.5 -12t-18 -7.5q-12 -12 -20 -18.5t-23 -12.5q-5 -2 -10 -8l-10 -12
q-5 -6 -9.5 -10t-9.5 -3q-3 -9 -8.5 -15t-11.5 -11.5t-10 -12.5t-3 -18q-4 -4 -7 -4t-7 4q-2 -12 -7.5 -19.5t-12.5 -13.5t-15 -12t-15 -13q-9 1 -15.5 4t-13.5 6t-14.5 4.5t-18.5 0.5q1 6 -2 9t-8 5q0 8 0.5 20t1 24.5t2.5 23.5t6 18q6 10 19.5 18t29 16.5t30 18t23.5 23.5
q1 -1 4 -1q8 0 13 4q5 9 13.5 13t15.5 12q3 3 3.5 7.5t3.5 7.5t11.5 6t13.5 8q6 5 9.5 11t8.5 11q8 6 17.5 9t18.5 8q9 6 16.5 14t11.5 19q20 9 39 18.5t37 20.5q10 6 19 13.5t18.5 14.5t20 12t22.5 5q15 0 23 -5.5t14.5 -12t14 -13.5t19.5 -10q10 -16 13.5 -34.5t4.5 -38
t0.5 -38.5t2.5 -37q-6 -17 -14 -33t-8 -34q0 -7 1 -12h-12q-4 -33 -15 -64.5t-25 -62.5l-27 -61q-13 -30 -22 -62q-2 -9 -7 -10.5t-7 -8.5q-5 -11 -8 -24t-8 -25q-10 -26 -20 -50t-21 -47v-10q0 -5 3 -5q-32 -44 -43 -100q-8 -6 -11.5 -14.5t-10.5 -14.5q-7 -29 -18.5 -56.5
t-23.5 -54.5t-23 -54.5t-17 -56.5q-11 -10 -17.5 -24t-11 -30t-8 -32t-7.5 -29l-10 -36v-20q0 -5 -1 -11t-6 -8q2 -7 5.5 -11t1.5 -11q4 -8 14.5 -9.5t18.5 -4.5q8 2 9 9t5 12q9 12 27.5 26t40 29t42 28.5t33.5 24.5h18q36 23 72 44.5t75 38.5q10 13 24.5 20t30 13.5
t30 13.5t23.5 20q11 2 24 5t19 14h4q3 0 6 -1.5t4 -5.5q7 2 8.5 9t6.5 12q29 11 59 23t59 27q14 0 31.5 4t26.5 18q2 -1 5 -1q11 0 21.5 3.5t21.5 8t22 8.5t23 5h2q2 0 1.5 5.5t-0.5 6.5q0 4 4 3q3 1 10 1q11 0 20.5 -4.5t18.5 -10.5t18 -12.5t19 -9.5q-2 -8 -2 -13
t1.5 -9.5t3.5 -9.5z" />
    <glyph glyph-name="three" unicode="3" horiz-adv-x="923" 
d="M871 388q0 -23 -6 -42.5t-13 -41.5l-5 -16q-7 -13 -19.5 -27t-22.5 -25q-23 -26 -46 -52.5t-41 -56.5h-2q-3 0 -5.5 -2t-4.5 -4.5t-4 -4t-6 -0.5q-7 -17 -22.5 -25.5t-27.5 -20.5q-1 -8 -4 -13.5t-3 -12.5q-36 -21 -67.5 -48.5t-61.5 -54.5q-19 -5 -30.5 -16t-23.5 -24
q-26 -13 -51.5 -28t-45.5 -37q-23 -6 -43.5 -19t-41.5 -26q-6 -4 -12.5 -6.5t-13.5 -5.5t-7 -10h-4q-8 0 -11.5 -5t-13.5 -4q-11 -11 -25 -17l-28 -13q-14 -7 -27.5 -14.5t-23.5 -19.5q-17 -2 -30.5 -10t-30.5 -8h-4q-6 7 -13.5 12.5t-14 11t-11 13t-4.5 19.5v5q47 19 79 54
q2 0 3 0.5t3 0.5q5 0 9 -1.5t8 -1.5q2 0 6 2q22 7 42.5 19t40 24.5t39.5 24t42 18.5q32 26 66 50t72 43q3 8 7.5 12.5t2.5 13.5q2 -1 5 -1q8 0 13 4q16 11 30.5 23.5t28.5 24.5q30 26 61 53t63 50q2 10 8 15.5t6 16.5q13 5 20.5 16.5t22.5 15.5q8 16 17 30t26 20
q6 16 13.5 29t14 25.5t11.5 26.5t5 34q0 22 -14 30.5t-33 11.5t-39.5 5t-32.5 10q-6 -1 -4.5 -8t-2.5 -9h-10q-13 0 -26 -4l-25 -7q-12 -3 -25 -6t-26 -2q-19 -10 -33.5 -18t-29 -15t-31 -13t-38.5 -11q-11 -2 -14 -7t-11 -10q-5 3 -9 7.5t-9 6.5q-5 -1 -8.5 -5.5t-6.5 -9
t-6 -8t-7 -3.5q-9 0 -16.5 5.5t-13.5 12.5t-12 14.5t-13 10.5q4 10 4 20.5t-1 19.5q12 13 22 26t25 20q27 32 50 60.5t40.5 59t29 65t14.5 78.5q0 7 3.5 11t3.5 10q0 10 -3.5 17t-8 12.5t-8 11.5t-2.5 16q-16 14 -36 14q-8 0 -18 -4t-20.5 -9t-20.5 -11.5t-16 -10.5
t-11.5 -8.5t-10.5 -8.5q-23 -20 -44.5 -39t-41.5 -40v-19q-9 -2 -14.5 -8t-8.5 -14.5t-5 -18t-5 -16.5l1 -3v-2q0 -1 -2 -1q-1 0 -3 1.5t-4 1.5h-2q-8 -23 -26.5 -35t-37.5 -23q-19 5 -34.5 15t-30.5 21q-7 14 -7 32t5 34.5t9 34.5q15 12 25 28t20.5 32t23 29.5t32.5 20.5
q10 16 25 28.5t31.5 23t32.5 21.5t28 25h19q3 10 12 14.5t18.5 8t17.5 9t9 18.5q4 1 4 -4q9 3 20 3q13 0 25.5 -3t24.5 -3q10 0 19 3q1 -6 5.5 -8.5t11 -4t13 -2t10.5 -3.5q-1 -10 6.5 -11.5t11.5 -6.5t4.5 -12t6.5 -13l11 -12q6 -5 11 -12q18 -25 28 -62t10 -68
q0 -2 -2 -11.5t-3 -11.5q-11 -51 -32 -95.5t-45 -89.5q6 -1 11.5 -1.5t10.5 -0.5q22 0 40.5 6t38.5 14q10 -3 22 -3q17 0 32.5 3t32.5 3q9 0 17.5 -4t19.5 -4q10 0 15 1q16 -8 34.5 -16t36 -17t33 -20.5t27.5 -26.5q2 -2 5 -6.5t4 -6.5q2 -4 2.5 -16t0.5 -17z" />
    <glyph glyph-name="four" unicode="4" horiz-adv-x="663" 
d="M611 1020q-3 -66 -13 -131.5t-22.5 -130.5t-24.5 -130t-19 -131q8 2 11 2q11 0 27 -8.5t27 -12.5v-9q0 -5 4 -5v-3q0 -14 -6.5 -22.5t-7.5 -21.5q-9 -6 -19 -11.5t-17 -13.5q-4 -5 -5 -12t-6 -13q-5 -8 -14.5 -12.5t-14.5 -12.5q-4 -7 -3 -16t-4 -17q-4 -5 -9.5 -8
t-8.5 -9q-5 -11 -6 -26t-5 -28q-2 -11 -6 -20t-4 -19v-6q0 -5 -4 -5.5t-7 -0.5q-6 -72 -14 -142.5t-8 -142.5v-36q0 -6 5.5 -8t5.5 -9q0 -4 -0.5 -7.5t-0.5 -7.5q0 -17 7 -34t11 -34l5 -27q2 -9 8.5 -17.5t13.5 -17.5t13 -20.5t8 -26.5q-8 -12 -25 -16.5t-29 -12.5
q1 13 -4.5 19.5t-13 11t-15.5 8.5t-13 11q-21 30 -34.5 66.5t-21.5 75.5t-11 78t-3 74v28q0 13 1 27q1 16 3.5 31.5t0.5 32.5q14 37 19.5 79.5t9.5 81.5q-25 -5 -55 -19t-50 -31q-12 7 -24 7q-19 0 -35.5 -7.5t-35.5 -7.5q-7 0 -11 1t-7 3t-6.5 4t-9.5 4q-21 7 -37 15
t-28 19.5t-20.5 27.5t-14.5 39q-2 10 -4.5 22t-2.5 23q0 8 4 24t4 31q0 7 -1.5 15t-6.5 13q9 18 13.5 37.5t8.5 40t9 40t16 37.5q-1 37 5 64.5t23 60.5v3q0 18 4 31t10 24.5t13 22.5t12 26q11 8 23.5 11t26.5 3q21 0 41 -7q5 -8 9.5 -16t4.5 -19q0 -9 -3.5 -15t-9 -10.5
t-11 -9.5t-9.5 -11q-10 -15 -16 -34t-10 -39.5t-8 -40.5t-9 -37q-2 -6 -5 -11t-5 -11q-6 -17 -5.5 -37t-1.5 -38q-3 -25 -7.5 -49.5t-4.5 -50.5t6.5 -49.5t22.5 -44.5q6 2 9 2q6 0 12 -3.5t12 -5.5q18 4 34 7.5t30 17.5q2 0 5.5 -0.5t5.5 -0.5q12 0 20.5 5.5t17.5 11.5
t19.5 11t25.5 5q8 10 17.5 16t17.5 16q4 26 9 58t20 54q-1 5 -1 10v10q0 40 9.5 78.5t8.5 77.5q8 7 12.5 17t7.5 21t6.5 21.5t9.5 19.5q-2 5 -2 11.5t-5 9.5q2 7 8 16t6 16q0 5 -0.5 10t-0.5 10q0 11 3.5 20t9.5 17q-3 10 -3 21q0 24 9 46t9 46v6q0 4 -1 7q7 14 11 24t3 26
q7 3 14 3q16 0 33.5 -10t34.5 -14z" />
    <glyph glyph-name="five" unicode="5" horiz-adv-x="892" 
d="M810 1001q-2 -9 -7 -17t-7 -18q-13 0 -25 -4t-15 -18h-3q-5 0 -6.5 4t-6.5 4h-1l-1 -1q-20 -6 -40 -13t-40 -13q-42 -14 -83.5 -27t-80.5 -33h-22q-60 -39 -124.5 -68t-126.5 -64q-7 -11 -16 -20.5t-20 -19.5q6 -5 6 -16q0 -14 -3 -26.5t-3 -25.5q0 -8 3 -12t9 -9
q-2 -6 -5 -11l-6 -9q-3 -4 -5.5 -11t-2.5 -19q0 -42 -7 -82t-7 -82q0 -25 4 -45q7 3 13 7t14 8q6 3 11.5 4t11.5 3q5 2 4 7t3 7q3 2 8.5 2.5t9.5 2.5q8 2 14.5 4.5t14.5 4.5q32 12 62.5 27t65.5 16q5 7 13 10.5t17 6t17.5 5t14.5 8.5q36 8 73.5 12t75.5 4q20 0 40 -3
q17 -9 33 -16t33 -15q17 -10 33.5 -22.5t30.5 -28.5q17 -17 22.5 -40t5.5 -46q0 -6 -0.5 -17t-2 -23t-3.5 -23t-4 -16q-2 -4 -15.5 -28t-29 -52t-29 -51.5t-15.5 -25.5t-7.5 -3t-7.5 -1q-2 -11 -7.5 -18t-11.5 -13.5t-11.5 -14t-5.5 -19.5q-8 -2 -13 -7t-12 -7
q-14 -24 -32 -44.5t-38 -39.5l-39 -39q-19 -20 -35 -42h-3q-8 1 -11.5 -4t-10.5 -6q-3 -5 -3.5 -11.5t0.5 -11.5h-19q-11 -14 -25.5 -23.5t-30 -18.5t-30 -19t-24.5 -25q-1 1 -4 1q-5 0 -7.5 -3t-10.5 -1q-15 -9 -24 -24t-26 -23q-19 9 -39 19t-33 28q7 15 8 29
q49 28 97 58.5t85 74.5q1 -1 4 -1t5 1.5t4 1.5t3 -1t2 -1q1 9 6.5 14.5t11.5 11t11 11t5 13.5q0 4 -2 10q23 12 40.5 29.5t33.5 37t32 38t37 32.5v18q11 3 17.5 10.5t11.5 16.5t10.5 17.5t15.5 12.5q0 2 1 4.5t1 5.5q0 2 -1 4t-1 4h10q15 34 34.5 65.5t30.5 67.5
q-2 25 -11 42t-21 37q-16 0 -23.5 7.5t-19.5 13.5q-6 -2 -11 -2t-10.5 1t-10.5 1q-11 0 -18 -7h-3q-5 -1 -7.5 3.5t-7.5 4.5q-1 0 -2 -0.5t-2 -0.5q-19 2 -36.5 -3t-36.5 -5q-6 0 -10 1q-9 -11 -24.5 -15t-28.5 -6q-24 -17 -48.5 -28.5t-52.5 -19.5q-17 -13 -36 -23.5
t-38.5 -21.5t-36.5 -24t-29 -31v-3q-1 -8 5 -12t6 -14q-8 -9 -10.5 -17.5t-0.5 -21.5l-16 -8q-8 -4 -16 -10q-11 4 -21.5 8.5t-23.5 4.5q-6 0 -16 -2q-12 19 -30 33t-35 28q2 14 6.5 29.5t19.5 20.5q1 5 1 9v9q0 12 -1.5 23.5t-1.5 22.5q0 10 1.5 14.5t3.5 6.5t4 3.5t3 4.5
q3 15 1.5 32t-1.5 32q0 20 3.5 39.5t15.5 36.5q-1 5 -1 9v9q0 42 6.5 83t11.5 83q-9 11 -21.5 19t-21.5 20q3 29 17.5 47t36.5 36v3q0 6 -2.5 12t-2.5 13q0 2 0.5 3.5t0.5 3.5q12 8 29 15t31 7q9 0 16 -4q60 22 118 50q19 1 38.5 6t33.5 20q10 3 22 5.5t24 6.5t22.5 9.5
t17.5 13.5q7 -3 16 -3q12 0 24.5 6.5t20.5 14.5q2 0 4.5 -0.5t5.5 -0.5q10 0 17.5 4t16 9.5t17.5 9.5t22 4h6q4 0 7 -1q14 3 28 10t28 7q10 0 16 -6q3 5 8 10.5t10 7.5q4 2 10 2.5t11 1.5t8.5 4t3.5 9q4 -2 8 -2q5 0 9.5 3.5t7.5 6.5q7 -2 10.5 -7t7 -10.5t9 -9.5t16.5 -2
q2 -13 11 -22z" />
    <glyph glyph-name="six" unicode="6" horiz-adv-x="905" 
d="M834 197v-13q0 -6 -1 -11q-2 -2 -6.5 -10t-6.5 -11q-8 -15 -12 -28t-4 -30q-15 -14 -28 -29.5t-25.5 -31t-26.5 -29.5t-32 -24q-4 -11 -11.5 -17.5t-9.5 -18.5q-33 -25 -66.5 -51t-68 -49.5t-72 -43t-77.5 -31.5q-1 -1 -4.5 -2t-5.5 -1q-5 0 -7 6q-29 -18 -64 -22.5
t-68 -4.5q-17 0 -33 0.5t-33 0.5q-16 11 -32.5 19t-31 17.5t-26 23t-17.5 34.5q-9 7 -14.5 11.5t-17.5 3.5q-1 5 1.5 7t1.5 7q-2 5 -7.5 6t-10.5 1q-20 47 -29 96.5t-9 100.5q0 30 3 59.5t10 58.5q10 10 14.5 25.5t7.5 32.5t7.5 33t13.5 27q-3 10 -3 23q0 8 3.5 16t13.5 8
q-2 7 -1.5 17t-1.5 15q11 25 19.5 51.5t17.5 53t19.5 52t25.5 48.5q4 30 15 55t24.5 48.5t27.5 47t23 50.5q7 1 10 5.5t6 10t7 9t13 3.5q3 12 9 22.5t13 20t13.5 19t10.5 21.5q15 11 31.5 20t31.5 19.5t27 23.5t18 33q32 9 58.5 24.5t55.5 26.5q11 0 10 -4t-1 -10q0 -5 3 -8
q10 -5 19 -5q8 0 16 1t17 1h9q1 -4 1 -8v-8q0 -28 -14.5 -57t-37.5 -46v-14q-4 0 -6.5 -2.5t-5 -5.5t-5.5 -5t-8 -1q-2 -6 -2 -11q0 -3 0.5 -5.5t1.5 -5.5q-8 0 -13.5 3t-7.5 11q-11 6 -25 9t-22 13q-11 -7 -27.5 -16t-26.5 -16l-10 -11q-12 -14 -23.5 -24.5t-16.5 -28.5
q-32 -26 -53.5 -58.5t-32.5 -70.5q-8 -4 -11 -13t-14 -9v-2q0 -4 2 -6t2 -6v-4h-3q-4 0 -7 -1t-5 -2q-2 -16 -7.5 -31.5t-11.5 -30.5t-10 -30t-3 -30q-7 -2 -8.5 -7t-6.5 -8q0 -15 -5.5 -29t-11.5 -28.5t-10 -28.5t-1 -29q-9 -11 -12 -24t-4.5 -26.5t-4 -27t-11.5 -23.5
q-2 -22 -7.5 -40t-14.5 -38q5 -8 5 -20q0 -7 -1 -14t-1 -15q0 -11 4 -19q20 7 25 32q16 3 26 11t19 17.5t19.5 17.5t25.5 11q24 29 53 51.5t58 45.5h3q13 0 28.5 9t22.5 20h2q3 0 5.5 -2t5.5 -2h4q7 5 13 9.5t13 8.5q20 13 43 20.5t46 15.5q15 6 29.5 10.5t31.5 4.5
q14 0 28 -4t29 -4q8 0 19 3q34 -13 66.5 -29t65.5 -31v-7q0 -4 0.5 -7.5t4.5 -6.5q3 -5 7 -9t8 -9q15 -23 22 -51.5t7 -54.5zM728 238l-6 10q-3 5 -4 11q-10 0 -16.5 3.5t-11 9t-9 11.5t-10.5 12h-9q-8 0 -15 2l-13 4q-6 2 -13.5 4t-18.5 2q-35 0 -67 -11t-65 -18
q-8 -11 -19.5 -16t-16.5 -17q-20 -2 -35 -9t-27.5 -16t-26 -18.5t-30.5 -14.5q-5 -12 -15 -18.5t-21 -12.5t-20 -14t-11 -22q-7 -6 -19 -4q-2 -6 -2 -11q0 -3 0.5 -5.5t1.5 -5.5h-3q-9 0 -13 -3.5t-6.5 -8.5t-5 -10.5t-7.5 -9.5q-12 -8 -22 -16q-22 -18 -35.5 -43.5
t-24.5 -51.5q26 -59 67 -108q2 1 6 1q12 0 24.5 -8t33.5 -8q8 0 16.5 0.5t16.5 0.5q7 0 13 -0.5t12 -2.5q17 7 36 13t33 19h17q11 10 18 14t22 4q17 16 33 27t39 16q4 15 7.5 19t20.5 3q32 35 68.5 64.5t68.5 64.5v5q0 5 1.5 9.5t2.5 9.5q6 0 9 2.5t8 4.5q15 35 27.5 66.5
t15.5 70.5z" />
    <glyph glyph-name="seven" unicode="7" horiz-adv-x="859" 
d="M859 392q-14 -10 -32 -12.5t-35 -2.5q-16 0 -31 1t-30 1q-13 0 -26.5 -2t-24.5 -10q-8 2 -15.5 3t-15.5 1h-9q-2 -9 -9 -11.5t-16 -2.5q-7 0 -14 1t-14 1q-14 -5 -27.5 -6.5t-27.5 -7.5q-22 -47 -38.5 -97.5t-42.5 -95.5v-22q-33 -74 -51 -152.5t-25 -158.5
q17 -12 32 -26t25 -33q-9 -14 -23 -21t-31 -7t-34.5 6.5t-31.5 18.5t-23 28t-9 34q0 14 6 28q-11 25 -11 52q0 33 14.5 63t32.5 57q-2 4 -2.5 7.5t-0.5 6.5q0 17 9.5 31.5t14.5 29.5q4 14 3 27.5t4 26.5q4 10 11 16.5t11 15.5q3 8 3.5 16.5t3.5 16.5q2 7 7 12.5t7 12.5
q11 26 16.5 53.5t19.5 53.5q-5 0 -10.5 0.5t-10.5 0.5q-8 0 -12.5 -3t-2.5 -12q-8 3 -15.5 6.5t-17.5 4.5q-9 -5 -17 -10.5t-18 -10.5q-5 4 -11.5 4.5t-12.5 0.5q-10 0 -24.5 -3t-19.5 -14q-10 3 -20 4t-21 1q-28 0 -56 -4.5t-56 -4.5q-17 0 -34 3.5t-32 12.5q1 5 1 9v9
q0 8 -2 13t-6 12q13 17 21.5 31.5t32.5 21.5q12 3 24 3h25q12 0 21 1.5t19 6.5h2q4 0 4.5 -3.5t4.5 -3.5t9 1t9 2q8 1 16.5 1.5t17.5 0.5q11 0 21.5 -0.5t22.5 -0.5q22 0 44 2.5t43 10.5q16 -3 32 -3q17 0 32.5 2.5t32.5 4.5q19 26 30 56t21.5 60.5t22.5 60t33 53.5
q10 36 25.5 70t39.5 63q5 28 16 48.5t30 40.5q1 8 -3 11t-4 10q-42 -11 -86.5 -23.5t-88 -30t-84 -39.5t-74.5 -50q-15 -3 -26 -10t-21.5 -14.5t-22 -14t-27.5 -7.5q-6 -12 -17 -19t-15 -21q-25 -13 -50 -25t-47 -28q-23 4 -44 19t-21 41q0 13 6 24t16 19q24 6 46.5 21
t44.5 27q8 5 16 9t18 7q3 2 7 2.5t8 2.5q5 2 11.5 7t11.5 9q20 14 42 25.5t48 11.5h2q3 5 8 8l11 6q6 3 10.5 7t6.5 12h3q5 0 8.5 2t6.5 4.5t7 3.5t10 0q8 8 18 13t19.5 10t19 10.5t15.5 13.5q3 -2 9 -2t13 1t14 1q5 0 6 5t1 10q28 0 46 17q25 1 49 8.5t47 16.5t46.5 16.5
t48.5 8.5q3 -9 10.5 -13.5t17.5 -7.5l20 -6q10 -3 16 -9q-2 -5 -2.5 -12.5t-2 -15.5t-4 -14t-8.5 -8q-8 -31 -21 -60.5t-34 -54.5v-17q-19 -26 -33.5 -53.5t-28.5 -56.5l-27 -57q-13 -28 -29 -55v-22q-7 -5 -10.5 -12.5t-6.5 -15.5t-7 -15t-12 -11v-3q0 -17 -5 -29t-13 -25
q4 -8 11 -10t14.5 -2t15 -0.5t13.5 -6.5q18 7 40 7q20 0 40 -3.5t40 -3.5q13 0 16 4t11 11q12 -2 22.5 -6.5t21 -10t20.5 -10t22 -5.5v-29z" />
    <glyph glyph-name="eight" unicode="8" horiz-adv-x="749" 
d="M820 983q0 -24 -13 -47t-39 -28q-9 -20 -22.5 -35t-28 -29t-29 -28.5t-24.5 -32.5q-10 -2 -16.5 -9t-15.5 -9q-11 -14 -22 -25.5t-28 -17.5q-54 -75 -103 -152.5t-98 -155.5v-6q0 -11 -4 -18t-7 -16q10 -13 23.5 -22t27.5 -17.5t27 -18.5t22 -24q11 -1 18 -6t18 -5
q4 -11 11.5 -18t16.5 -13t18.5 -11t17.5 -12q6 -15 16 -27t24 -20q4 -12 9.5 -23t11 -21.5t9 -21.5t3.5 -25q0 -16 -4 -31q-19 -23 -33.5 -50t-31.5 -53q-32 -19 -64 -37.5t-61 -41.5q-18 -1 -32.5 -7.5t-28.5 -18.5q-33 -7 -65.5 -14.5t-66.5 -7.5q-32 0 -50 6t-32 16
t-28 22.5t-38 25.5v3q0 5 2 7.5t2 6.5q0 6 -7 18.5t-11 17.5q-3 19 -3 40q0 53 13.5 96.5t33.5 84t42 80.5t39 86q-11 18 -29.5 28t-37.5 15q-8 22 -23.5 34t-29.5 28q-12 17 -15 33q-1 2 -0.5 2.5t-0.5 2.5q-2 6 -7 4.5t-7 3.5q-2 3 -3.5 17.5t-2.5 32t-1.5 33t-0.5 21.5
q5 12 10 26t11 27t15 23.5t22 16.5q0 11 6 17t5 19q17 7 30.5 18t27.5 22q7 5 14 7t14 7q5 4 3.5 6.5t3.5 8.5q15 -1 31.5 11.5t26.5 23.5h3q16 0 30 8t31 7q5 10 15 15t21.5 9t23 7.5t19.5 11.5q28 4 55 13l55 18q28 9 55.5 17t56.5 12q5 9 13 14.5t16 11.5q10 9 17.5 21
t15 22.5t17.5 18t27 7.5q16 0 28 -9t17 -24h2q11 0 16 7q5 -15 5 -30zM531 111v5q-11 15 -22 29t-25 28q-5 5 -8.5 13t-8.5 13q-10 8 -23 10.5t-24 10.5q-5 4 -9 9t-9 9q-6 5 -12.5 6t-12.5 5t-10.5 10.5t-11.5 10.5q-7 5 -15 6t-16 5h-8q-2 -7 -5 -11t-5.5 -8.5t-4 -9.5
t0.5 -14q-2 1 -5 1q-5 0 -5.5 -3.5t-3.5 -5.5q-22 -45 -41 -90.5t-33 -94.5q-1 -2 -3 -11t-2 -11q0 -5 2 -9t2 -9q0 -2 -1 -4q-3 -4 -4 -9.5t-6 -7.5q4 -10 4 -19t3 -17q12 -14 30 -20.5t34 -12.5q11 6 24 8.5t25.5 5t25 6.5t22.5 13h4q17 0 26.5 8t19.5 20q19 3 30.5 12
t21 20.5t18.5 23t23 19.5q2 9 5 15.5t6 13.5t5 14t2 17zM506 798q-10 0 -15.5 -5t-13.5 -7q-3 10 -12 10q-8 0 -18 -6.5t-20 -6.5q-6 0 -10 3q-15 -17 -39 -22.5t-44 -8.5q-15 -26 -46 -33q0 3 -0.5 7t-4.5 4h-2v-2q0 -5 -3.5 -7t-1.5 -9q-20 -9 -35.5 -22t-28 -29t-24 -33
t-22.5 -34q0 -5 0.5 -11t0.5 -12q0 -10 -5 -20q8 -21 17.5 -40.5t22.5 -36t30 -28.5t41 -18q0 3 3 4t5 0q18 37 39.5 74.5t53.5 65.5q12 24 27.5 47t29.5 47q3 22 13 37t22 29t23.5 28.5t16.5 34.5z" />
    <glyph glyph-name="nine" unicode="9" horiz-adv-x="939" 
d="M970 772q0 -26 -7.5 -50t-12.5 -50q-29 -22 -55 -45.5t-56 -43.5q-16 -29 -26 -65t-20 -68q-1 -3 -1 -6q0 -5 2.5 -8.5t2.5 -8.5v-1l-1 -2q-4 -15 -8.5 -29t-7.5 -28q-9 -45 -16 -88t-19 -88q0 -1 -0.5 -23.5t-1.5 -49.5t-1.5 -51.5t-0.5 -29.5q0 -45 8.5 -87t35.5 -78
q-3 -9 -3 -19q0 -11 3 -20q-5 -8 -9 -15.5t-9 -14t-12 -10.5t-18 -4q-14 0 -31 7t-28 16q1 5 1 15q0 21 -6 42.5t-12.5 44t-12.5 46t-6 48.5q0 8 2 17.5t2 17.5q0 5 -5 7.5t-3 7.5v7q0 5 2.5 8t4.5 7q-1 13 -1 25v25q0 72 9.5 143.5t27.5 140.5q-3 7 -3 16t3 18.5t3 19.5
q0 7 -3 13q-3 2 -11 2q-16 0 -29.5 -7.5t-24.5 -18.5q-42 -14 -83 -30.5t-84 -27.5q-18 -13 -40 -20.5t-45.5 -13t-47 -10.5t-44.5 -13q-13 1 -25 0t-26 -1q-16 0 -32 4q0 1 -2 1q-7 0 -8.5 -5.5t-7.5 -5.5t-11.5 2.5t-12.5 2.5q-6 0 -12.5 -1.5t-12.5 -3.5q-21 8 -40.5 15
t-42.5 9q-8 8 -13.5 19t-18.5 14q-3 9 -5 18.5t-2 18.5q0 22 5.5 38t16 30.5t25 28.5t32.5 31q23 11 40 28.5t39 28.5q14 17 31.5 29.5t36 24t36 23.5t32.5 28q16 3 30.5 10.5t28.5 16t28.5 16t31.5 10.5q5 5 10.5 12.5t10.5 9.5q14 8 30.5 13t32.5 12q30 13 58.5 24.5
t57 20t58.5 14t64 6.5q1 -3 4.5 -3.5t5.5 -0.5q15 -12 30 -23.5t32 -19.5q21 2 34 9.5t30 15.5q29 -9 54.5 -24t42.5 -40q1 -6 1.5 -12.5t0.5 -13.5zM745 705q-17 10 -30.5 19t-13.5 33q0 10 1 15q-10 0 -15.5 5.5t-15.5 5.5h-4q-20 -11 -41 -17l-42 -12q-21 -6 -42 -13
t-40 -19h-36q-13 -18 -30.5 -29.5t-37 -20t-38.5 -17.5t-34 -22q-5 -4 -10 -13.5t-10 -9.5q-2 0 -4.5 0.5t-4.5 0.5h-3q-7 -5 -13 -11.5t-12 -12.5t-13 -10.5t-16 -5.5q-17 -17 -32.5 -30.5t-35.5 -33.5q-2 -11 -8.5 -19t-13.5 -15.5t-12.5 -15.5t-5.5 -17v-5q11 -3 22 -8
t21 -10q8 0 17 -0.5t17 -0.5q48 0 93 11t88.5 26.5t87 32.5t88.5 28h4q4 0 7 -2t7 -2q3 0 4 1q13 21 37.5 32t48 23t39 30t11.5 51q10 12 14.5 27t6.5 31z" />
    <glyph glyph-name="colon" unicode=":" horiz-adv-x="336" 
d="M233 620q0 -14 -4.5 -26.5t-4.5 -26.5q0 -12 6 -21q-6 -12 -14.5 -18.5t-18.5 -12t-20 -10.5t-18 -13q-11 2 -20 6t-19 4q-7 0 -16 -3v3q0 10 -6 14.5t-13.5 7t-14.5 6t-9 12.5q6 9 6 17q0 6 -2.5 13t-3.5 13q14 8 24.5 18.5t10.5 27.5q0 5 -2 15q10 2 20.5 2.5t21 2
t19 6t14.5 14.5q11 -2 17 -8.5t19 -6.5q0 -23 25 -21q3 -6 3 -15zM227 98q0 -26 -12 -45.5t-20 -41.5q-14 -3 -30 -7t-25 -14q-11 10 -22.5 17t-13.5 26q-2 0 -3 0.5t-3 0.5q-6 0 -11 -2.5t-11 -2.5q-5 11 -5 23v34q0 6 -2 11q11 3 16.5 11.5t10 18t11 17t19.5 8.5
q-1 4 1 5.5t3 4.5q13 -2 30 -6t32 -11t25 -18.5t10 -28.5z" />
    <glyph glyph-name="semicolon" unicode=";" horiz-adv-x="288" 
d="M190 72q0 -38 -7.5 -74.5t-17.5 -72.5q-5 -5 -8 -11t-10 -10v-19q-34 -47 -66.5 -95.5t-77.5 -86.5q-1 -8 -6.5 -12t-3.5 -14l-3 1q-5 0 -6.5 -5t-9.5 -3q-1 -7 -3 -13.5t-4 -14.5q-14 -7 -30.5 -12t-32.5 -5q-4 0 -7.5 0.5t-8.5 1.5q-8 7 -9.5 19t-11.5 17v6
q0 12 4.5 19.5t6.5 17.5q4 3 8.5 4t9.5 3q7 18 20 31.5t26.5 26t25.5 27t18 34.5q8 4 12 10.5t12 11.5v5q0 8 3 13t7 9l9 7q5 3 7 9q5 13 9.5 27.5t9.5 28.5q7 17 13.5 34.5t10.5 34.5q1 4 1 7v7q0 16 -4 31t-4 31v6q19 27 54 27q20 0 37.5 -10t26.5 -27v-22zM196 546
q-9 -17 -22 -29.5t-21 -28.5q-5 1 -8.5 1.5t-7.5 0.5q-12 0 -13 -13q-10 5 -14.5 12.5t-18.5 7.5q-7 0 -10 -1q0 2 0.5 3t0.5 3q0 8 -7 8.5t-13 -0.5q-1 14 -6 27t-18 19q9 19 13.5 39t18.5 37q11 -1 20.5 -3.5t20.5 -2.5q5 0 8.5 0.5t7.5 1.5q18 -5 32.5 -14.5t28.5 -21.5
v-7q0 -11 3 -20t5 -19z" />
    <glyph glyph-name="less" unicode="&#x3c;" horiz-adv-x="819" 
d="M758 -17q0 -9 -4 -12.5t-9 -6t-9 -5.5t-4 -9q0 -4 4.5 -4.5t6.5 -2.5q-20 -8 -38 -19t-40 -14q-1 6 -5.5 9t-9 5.5t-9 5.5t-5.5 9q-48 23 -95 50.5t-84 67.5q-1 -1 -4 -1q-8 0 -10 5.5t-12 3.5l-32 34q-16 17 -40 26q-9 13 -20 23.5t-22 20.5t-21.5 21t-17.5 25
q-9 3 -18 8.5t-18.5 11.5t-18.5 10.5t-17 5.5q-4 13 -12 22t-18 16t-21 13t-21 13q-11 27 -32.5 43t-39.5 36q-3 15 -7 30t-4 30v5q12 16 28 27.5t30 26.5q21 0 42.5 8.5t42 20.5t40.5 24.5t39 21.5q4 2 5.5 4.5t2.5 4.5t2 4.5t5 4.5q53 28 97 59t87 73q12 11 23 23.5
t23 23.5q0 2 4 2q2 0 3.5 -1t6.5 -1q15 9 15 25q6 1 12.5 3.5t11.5 7.5l18 17q17 17 38.5 26.5t44.5 14.5q6 -4 13 -6.5t13 -6t10 -9t4 -14.5q-6 -10 -12.5 -18t-12 -16t-9.5 -17t-6 -21q-14 -7 -26.5 -16.5t-24.5 -19t-25 -18.5t-28 -15q-2 -5 -5.5 -9.5t-1.5 -11.5
q-60 -42 -118.5 -86t-118.5 -86q-20 -2 -30 -13.5t-21 -26.5q-32 -11 -57 -32q19 -39 49.5 -67t62.5 -55q-1 -5 -2.5 -9.5t-1.5 -9.5q0 -10 7 -10q5 0 9 2t9 2q-1 -8 4 -11.5t3 -13.5h22q41 -27 77 -59.5t77 -59.5q0 -6 3 -9.5t1 -11.5q4 -7 12 -6.5t13 -3.5q2 -2 1.5 -6
t1.5 -6t13 -3t16 -4q8 -4 14.5 -11.5t14.5 -12.5q5 -3 9 -4t9 -3q11 -8 16.5 -14t21.5 -6q3 0 6 0.5t6 0.5q9 -5 20.5 -11t22 -13.5t18 -17t7.5 -21.5z" />
    <glyph glyph-name="equal" unicode="=" horiz-adv-x="1163" 
d="M925 436q0 -11 -5.5 -19t-12 -16t-11.5 -18t-3 -25q-14 -8 -25.5 -13t-23 -9t-24 -5.5t-28.5 -1.5h-17q-14 8 -21.5 21.5t-18.5 25.5h-5q-8 0 -12 3.5t-11 7.5q-14 -1 -32 -0.5t-36.5 -0.5t-35.5 -4t-29 -10q-29 3 -59 3q-36 0 -77 -5t-76 -19q-6 1 -12 1h-12
q-34 0 -63.5 -12.5t-59.5 -28.5h-5q-15 0 -29 -4t-27.5 -9.5t-27.5 -10.5t-29 -8q-7 -2 -12.5 -5t-12.5 -3q-13 0 -23.5 7t-18 18t-11.5 24t-4 24q0 33 25 53h29q17 9 35 14t36 9l36 9q18 5 36 11h4q17 0 34 4.5t34 9.5q5 2 12 4.5t13 3.5q10 1 19.5 0.5t18.5 0.5l66 3
q47 2 93.5 9t92.5 15q8 -2 14.5 -5t14.5 -5q18 9 39 6.5t40 3.5q18 -2 36.5 -3.5t36.5 -1.5q19 0 37 0.5t37 1.5q17 -11 34.5 -18.5t34.5 -16.5q1 -5 1.5 -8.5t0.5 -7.5zM1102 203q0 -14 -4.5 -26.5t-6.5 -26.5q-11 -6 -23 -14t-24 -8q-3 0 -11 2.5t-18 5.5t-19.5 6t-15.5 4
q-5 -4 -12 -4.5t-10 -6.5q-6 2 -12 2h-11q-30 0 -59 -6t-59 -6q-14 0 -27 3q-48 -9 -95 -12t-96 -5q-24 -14 -52.5 -15t-54.5 -5q-11 -2 -20 -4t-19 -5h-4q-6 0 -9.5 2.5t-8.5 4.5q-21 -13 -34.5 -15.5t-37.5 -2.5q-5 0 -20 -4t-23 -6q-19 -3 -42 -6t-46 -7.5t-44 -11.5
t-37 -19q-12 -2 -24.5 -1.5t-25.5 -2.5q-8 5 -13.5 12.5t-10.5 15.5l-10 16q-5 8 -13 14q13 14 23 30t27 24h11q4 0 8 -0.5t7 -3.5q54 19 108.5 29t110.5 17q48 6 96 13.5t94 23.5q4 -2 8 -2.5t8 -0.5q15 0 27 6h13q50 0 99 9t100 12q11 1 22.5 0.5t23.5 -0.5q10 0 20 1.5
t20 6.5h17q11 0 23.5 0.5t23.5 0.5q8 0 18.5 -1t17.5 -8q25 10 48 10q14 0 28 -2l28 -4l22 -25v-4z" />
    <glyph glyph-name="greater" unicode="&#x3e;" horiz-adv-x="730" 
d="M669 483q0 -21 -5.5 -36.5t-27.5 -23.5q-2 -12 -8.5 -19t-13.5 -13.5t-12.5 -14.5t-5.5 -22q-19 -14 -34 -31t-31 -33.5t-33.5 -30.5t-40.5 -22q-31 -35 -63.5 -67t-69.5 -59q-8 -17 -20.5 -31t-26 -27t-26 -26.5t-21.5 -30.5l-6 2q-3 1 -6 1q-4 0 -5 -3
q-15 -13 -24.5 -32t-17.5 -39t-16.5 -40t-20.5 -36q-5 8 -12 8q-5 0 -10.5 -1.5t-11.5 -1.5q-7 0 -13 3q-5 11 -11.5 21.5t-13.5 21.5l-1 6q0 15 3.5 26.5t9 22t10.5 21t7 24.5q37 42 74 83.5t84 74.5q9 33 46 46q5 9 10.5 15.5t7.5 17.5q9 4 16 10.5t14 14t14 14.5t17 11
q11 21 27 39t33 35t33 35t26 41q-21 19 -42 33t-49 20q-5 8 -3 15h-21v3q0 7 -4.5 10.5t-10 6t-10 6t-4.5 11.5q-15 3 -25.5 10t-20.5 15.5t-20.5 15.5t-26.5 9q-2 5 -5 8t-2 9q-20 10 -36 24t-31.5 29t-31.5 29.5t-34 25.5q-5 12 -15.5 24.5t-21 25.5t-18.5 25.5t-8 24.5
q0 6 0.5 12t0.5 11q0 8 -3 17q6 1 9 5.5t5.5 9.5t5 9.5t6.5 4.5q16 0 28.5 -3.5t24 -9.5t22.5 -13t25 -14q3 -13 9 -22.5t13 -18.5t14.5 -18t13.5 -20q23 -20 47.5 -37.5t38.5 -44.5q8 0 12 -4l8 -7q4 -3 9 -6t14 -1q5 -6 3 -15q13 -9 25.5 -20t26 -20.5t28.5 -15.5t32 -4
q23 -36 68 -33q5 -10 15 -13t18 -5q3 -1 5.5 -2t4.5 -1q11 0 14 5t11 6q15 -10 31.5 -17t29.5 -19q1 -8 1 -15v-15z" />
    <glyph glyph-name="question" unicode="?" horiz-adv-x="829" 
d="M840 881q0 -24 -9 -47t-12 -46q-29 -49 -60.5 -96.5t-75.5 -85.5v-4q0 -7 -3.5 -10t-3.5 -11q-19 -11 -34.5 -25.5t-30 -30t-29.5 -31t-32 -28.5l1 -2q0 -5 -3 -7t-1 -10q-14 -9 -26 -19t-17 -27q-24 -11 -39.5 -30t-29.5 -41q-12 -2 -23 -8t-13 -21q-36 -11 -59.5 -36
t-43.5 -57q1 -8 1.5 -16t0.5 -16q0 -34 -13 -68q9 -27 9 -54q0 -25 -9 -47q-22 -4 -38 -13.5t-40 -9.5q-5 0 -9.5 0.5t-9.5 1.5q-13 16 -19.5 35.5t-20.5 35.5q8 4 10 13.5t2 17.5t-1.5 17.5t-5.5 16.5q6 25 6 53q0 37 -11 76q10 14 20.5 26.5t22.5 23.5q5 -1 8.5 -2.5
t8.5 -1.5h5q28 4 46.5 13t34 21t30.5 25.5t36 26.5q9 12 20 22t22.5 20t21 21.5t15.5 26.5q20 11 35 25t23 37q22 14 39.5 33t34.5 39t35 38.5t41 32.5q0 1 -0.5 2t-0.5 3q0 5 1.5 9.5t2.5 9.5q11 3 15.5 11t13.5 11q4 22 14.5 36t21.5 32q4 6 6 13t5 12q2 5 7.5 7t9.5 4
q-2 13 -2.5 30t-7.5 28q-27 11 -54 11q-18 0 -35 -3t-34.5 -7t-34.5 -6.5t-35 -1.5q-45 -21 -90 -39t-94 -26q-30 -23 -60.5 -39t-68.5 -22q-6 -6 -28 -25t-46 -39t-45 -35.5t-26 -15.5q-9 0 -14.5 6.5t-9.5 14.5t-8 15.5t-9 10.5q5 11 6.5 24t0.5 26q9 16 23 27.5t29 21.5
t29.5 20t26.5 24q15 2 28 9t25.5 14.5t24.5 13.5t26 6q10 7 21 11.5t22.5 8t22.5 7.5t20 12h18q24 15 50.5 24t53.5 16.5t54 14.5t53 17q29 0 57 5t57 5q40 0 74 -12.5t63 -40.5v-21q14 -15 14 -37zM349 -179q-3 -4 -6.5 -6.5t-6.5 -5t-4.5 -5.5t0.5 -9q-25 -1 -38.5 -12.5
t-26.5 -30.5q-18 0 -25.5 -9.5t-21.5 -15.5h-4q-22 0 -36 9.5t-22.5 24.5t-12 33.5t-4.5 36.5q19 13 40 22.5t44 9.5q18 0 35 -6q6 0 9.5 3.5t7 7.5t7.5 7t12 3q14 -13 27 -28t26 -29z" />
    <glyph glyph-name="at" unicode="@" horiz-adv-x="1335" 
d="M1279 764q-1 -29 -10.5 -56t-7.5 -56q-15 -29 -26 -59.5t-28 -57.5q-6 -10 -12 -17t-11.5 -14.5t-9 -16t-3.5 -21.5q-5 -4 -11.5 -3.5t-9.5 -3.5q-2 -3 -6.5 -12t-8.5 -14q-11 -14 -24 -26t-22 -27q-21 -12 -38 -28.5t-33.5 -33.5t-34 -33t-38.5 -27q-9 -23 -25.5 -39.5
t-31.5 -36.5q-5 -1 -10 -1.5t-10 -0.5q-18 0 -31 7t-25 15t-26 15.5t-34 7.5q-5 14 -12.5 25t-16.5 22q-1 11 -0.5 20.5t0.5 19.5q0 9 -0.5 16.5t-2.5 15.5q-9 -1 -17 -4t-9 -14q-6 2 -10 2q-12 0 -21 -5.5t-18.5 -11.5t-20 -11.5t-23.5 -5.5q-2 -2 -7.5 -4t-3.5 -7
q-19 -2 -36.5 -8.5t-28.5 -23.5q-4 1 -12 1q-11 0 -24.5 -4.5t-20.5 -15.5q-8 -2 -17 -3t-17 -1q-23 0 -45.5 7t-45.5 9q-10 20 -21 41t-22 41q3 16 7 32t7 32q19 14 33 31t27.5 34t29 32t39.5 26q2 7 7.5 12t7.5 13q35 14 66.5 37.5t65.5 40.5q21 11 44 25t47 26t48.5 20.5
t48.5 8.5q12 0 23 -1.5t22 -2.5q10 -12 22 -22t22.5 -21t17.5 -24t7 -30q0 -14 -7 -26.5t-7 -26.5q0 -10 3.5 -13t6.5 -10q-1 -12 -10 -24q4 -15 4 -32q0 -26 -5 -51t-5 -51v-11q0 -5 1 -10q69 42 127 95t103 121q8 1 13 5.5t12 8.5q14 25 25.5 50t25.5 51q2 19 6 38t15 36
q0 11 0.5 21.5t0.5 20.5q0 11 -1 21t-4 20v5q0 5 4 7t4 7q0 9 -6 17.5t-12 14.5q0 17 -6 33.5t-16 30.5q-12 18 -36.5 34t-53.5 28t-58.5 19t-50.5 7q-10 0 -19.5 -1t-17.5 -5q-17 10 -33 10q-14 0 -44.5 -11t-63.5 -26t-62.5 -30.5t-41.5 -24.5q-13 -9 -23.5 -18t-26.5 -15
q-13 -15 -28.5 -27.5t-31.5 -25t-30.5 -26t-24.5 -31.5q-4 -3 -9 -4t-8 -3q-4 -5 -10.5 -14t-10.5 -14q-20 -23 -39 -43.5t-30 -50.5q-20 -19 -35 -41.5t-28.5 -46.5t-28 -46.5t-33.5 -41.5q-14 -31 -30 -60t-31.5 -58.5t-30 -59.5t-23.5 -63q-11 -12 -17.5 -27.5t-12 -32
t-11.5 -33t-16 -29.5q-4 -11 -5 -23.5t-1 -25.5q0 -9 1 -22.5t2.5 -27t4 -26t5.5 -21.5q4 -14 15.5 -27t19.5 -25q4 -4 6 -8t5 -9q4 -6 12.5 -11.5t18.5 -9.5l20 -8q10 -4 18 -7q4 0 7.5 1t7.5 1t6 -3t3 -6q25 10 50.5 9.5t50.5 6.5q10 3 17 7.5t15 9.5q1 0 3.5 1t4.5 1
t5 -2t5 -4q7 7 16 11t18.5 8t18 8.5t15.5 12.5q19 1 35 7.5t30 20.5q2 -1 7 -1t14.5 1t14.5 3t3.5 7t3.5 8q4 2 18 6.5t21 6.5q21 8 41.5 17t41.5 18q11 5 22 8t21 8q6 3 7 9.5t11 6.5q4 0 6 -3t6 -3l2 2q57 28 115.5 46.5t117.5 39.5q5 -12 14 -12v-9q1 -14 -3 -27
q-17 -10 -37 -18.5t-35 -24.5q-3 1 -7 1q-14 0 -19.5 -7t-16.5 -11q-3 -2 -6.5 -2t-6.5 -1q-16 -4 -31.5 -11.5t-23.5 -21.5q-40 -10 -79 -26.5t-72 -41.5q-19 0 -33.5 -7t-28.5 -18q-4 -2 -8.5 -5.5t-8.5 -5.5q-10 -5 -20.5 -7.5t-21.5 -6.5q-26 -9 -52 -21.5t-49 -29.5
q-17 -3 -33.5 -10t-30.5 -18q-4 -1 -7 -0.5t-6 0.5q-8 0 -6 -8q-6 4 -12 4q-14 0 -25.5 -6t-25.5 -6h-7q-3 0 -5 1q-11 -3 -21.5 -6t-21.5 -8q-9 7 -19 7q-11 0 -9 -11q-13 6 -30 10t-33.5 8t-30.5 7t-21 8q-5 3 -8 8.5t-7 11t-8.5 9.5t-10.5 4q-2 0 -3 -0.5t-3 -0.5
q-2 16 -12 23.5t-24 12.5q-17 26 -25 57.5t-21 60.5l-1 6q0 9 1 19t1 20q0 6 -1 11.5t-1 12.5q0 8 6 10.5t6 10.5q0 4 -4.5 3.5t-4.5 3.5l1 3q4 12 7 27t8 29.5t12.5 26.5t19.5 18l-1 6q0 9 2 18.5t4.5 19t4.5 18t1 16.5q16 7 24.5 22t15 33t14 36t21.5 31q2 2 2 5
q0 2 -1.5 4.5t-1.5 6.5q0 2 1 3q35 56 70 113t67 116q6 3 10 7.5t8 10t8.5 9.5t11.5 6q2 22 12.5 36.5t23 27t24 25.5t16.5 33l22 10q11 24 32 48t45.5 47t50.5 42.5t47 34.5h5q5 0 8 2t8 2q15 12 30 23t32 20q14 8 30 13t31 12q46 21 90.5 39.5t97.5 18.5q13 0 25.5 -2
t26.5 -2q40 0 69 -9.5t53.5 -25t48.5 -35t55 -38.5q8 -35 39 -54q2 -30 13.5 -50t19.5 -46l-4 -18q-2 -9 -2 -18q0 -14 13 -18q-5 -7 -5 -16q0 -8 5 -16zM744 563v3q-5 6 -12 6q-6 0 -12 -2t-13 -2q-9 0 -13 2q-11 -11 -25 -18t-28.5 -13.5t-28.5 -14t-25 -19.5l-22 -7
q-8 -10 -19 -17t-22.5 -13.5t-21.5 -14.5t-16 -20q-1 1 -3 1q-5 0 -7 -5t-8 -3q-3 -12 -9.5 -21t-13 -17t-11.5 -18.5t-5 -25.5q10 -5 27 -5q25 0 49 9.5t49 9.5q8 7 13 14.5t13 14.5h3q19 0 35.5 9.5t32.5 20.5t33.5 18.5t38.5 4.5q10 19 10 39q0 17 -4 33t-6 33q5 6 13 7
t8 11z" />
    <glyph glyph-name="A" unicode="A" horiz-adv-x="658" 
d="M817 -238q-3 -17 -13.5 -24.5t-19.5 -21.5h-4q-10 0 -19.5 -2t-19.5 -5q-5 2 -12 3t-9 7q-8 -4 -22 -4q-23 0 -43.5 13t-42.5 20q-6 12 -14.5 21.5t-17 18.5t-16.5 19t-13 24q-2 6 -5 7t-9 0q1 11 -2.5 19t-15.5 10q0 13 -4 22t-9.5 15.5t-12 13.5t-10.5 17
q-9 2 -17.5 2.5t-18.5 0.5q-48 0 -93 -18q-5 -2 -10.5 -5t-10.5 -5q-2 0 -3.5 -0.5t-3.5 -0.5q-7 0 -13 2.5t-13 2.5q-3 0 -6.5 -1.5t-6.5 -2.5q-15 -5 -28 -6q-41 -8 -86.5 -12t-83.5 -21q-8 -4 -10 -12.5t-1 -16.5q-11 -8 -16.5 -21t-10 -27.5t-9.5 -28.5t-14 -24
q3 -6 3 -13q0 -15 -10 -30t-15 -29t-8 -27.5t-9 -24.5t-16.5 -18t-29.5 -7q-18 0 -31 7t-21 18t-13 26t-8 30q11 22 21 38t15 41q18 13 26.5 31.5t9.5 40.5q11 7 15.5 18.5t5.5 24.5q-24 2 -50.5 4t-49.5 10q0 2 0.5 4t0.5 4q0 13 -6 23.5t-6 22.5v8q8 8 14.5 16.5
t13.5 15.5t16 11.5t23 4.5q19 0 37 -2.5t37 -2.5q13 0 27 3q22 45 39 91.5t26 94.5q7 10 13 23.5t9.5 28.5t5 29.5t1.5 26.5q11 13 15.5 32t7.5 39.5t6.5 40.5t13.5 35v9q1 15 -3 27q5 2 6 9t4 12q1 46 10 90.5t15 89.5v3q0 5 -3.5 5.5t-3.5 5.5q0 9 2.5 24t3.5 25
q6 54 6 107q0 45 -3 89t-6 89l8 12q4 6 7 12q10 4 16.5 8.5t17.5 4.5q3 0 5 -0.5t4 -0.5q6 -4 9.5 -11t7 -13t9.5 -10t17 -2q5 -28 28 -29q5 -14 12.5 -28t20.5 -22q-1 -4 -1 -11q0 -14 6.5 -27t16.5 -24v-2q0 -11 -8 -15q9 -10 13 -24t7 -28.5t7.5 -27.5t15.5 -20v-3
q0 -5 -3.5 -6t-3.5 -6q18 -33 25 -72t18 -75q4 -4 9.5 -5t8.5 -5q-6 -4 -6 -14t-5 -15q8 -7 7.5 -20.5t7.5 -19.5v-4q0 -4 -2 -6.5t-2 -6.5v-4q8 -35 12.5 -70t9.5 -70t11 -69.5t17 -67.5q1 -1 1 -3q0 -5 -4 -5.5t-4 -5.5t3.5 -11.5t7.5 -10.5q-1 -4 -1 -12q0 -15 5.5 -29
t12 -27.5t11.5 -28.5t4 -32q6 -9 15.5 -15t19.5 -11t18.5 -12t11.5 -19q-8 -7 -11 -17.5t-11 -18.5q7 -17 16.5 -31.5t19.5 -28.5l21 -28q11 -14 19 -30q11 0 16 -6t16 -5q4 -8 3 -18q20 7 40 7q11 0 20.5 -1t19.5 -1q12 0 21 3q4 -6 6 -13.5t3 -15.5l3 -16q2 -8 6 -14z
M440 39q-14 69 -28.5 137.5t-25.5 138.5q-6 37 -9 74t-7.5 73.5t-12 72.5t-21.5 71v2q0 3 2 5t2 7v4q-13 9 -18 25.5t-8.5 35t-9 36t-18.5 29.5q-5 -58 -10.5 -115.5t-7.5 -115.5q-10 -6 -13 -20t-3 -25q0 -8 1 -16.5t4 -17.5q-18 -45 -26 -92.5t-18 -94.5q-1 -3 -3.5 -13.5
t-5.5 -21.5t-5 -19.5t-2 -9.5q-1 -7 -0.5 -14t0.5 -14l-15 -15q-4 -38 -14.5 -73.5t-21.5 -72.5q7 -1 13.5 -1.5t13.5 -0.5q32 0 64.5 4.5t64.5 8.5q11 2 23 3.5t23 1.5q5 1 12 0.5t12 0.5q8 2 10.5 6.5t10.5 5.5q6 -3 14 -3q9 0 17 4t16 9z" />
    <glyph glyph-name="B" unicode="B" horiz-adv-x="1234" 
d="M1193 170q0 -13 -7 -23.5t-4 -24.5q-4 -7 -10.5 -11t-4.5 -15q-21 -11 -38.5 -27.5t-37.5 -31.5q-12 -9 -20.5 -12.5t-20.5 -10.5l-25 -16q-17 -9 -34.5 -18t-31.5 -23q-21 -1 -43 -11.5t-42 -18.5q-8 -3 -16 -4.5t-16 -5.5l-16 -7q-14 -7 -33 -14.5t-34 -7.5
q-9 -4 -15 -14q-33 -11 -68 -17t-68 -19q-11 -5 -22.5 -13.5t-24.5 -7.5q-3 -5 -4 -12t-3 -14h-3q-4 0 -3.5 4t-3.5 4q-3 0 -4 -1q-13 -3 -24.5 -5t-25.5 -2q-8 0 -25.5 2t-25.5 5q-6 3 -10 11t-7.5 17t-6 18.5t-4.5 15.5q3 11 10 18t11 18q9 1 18 3t18 1q31 9 62.5 17.5
t62.5 17.5t61 20t58 27h21q18 10 40 17t36 23q33 7 69 19t60 38q15 2 26 7.5t21 11.5l20 13q10 7 23 11q8 8 15 17t17 15q-3 16 -16 24t-23 19h-22q-26 16 -55.5 24.5t-58.5 18.5q-2 1 -5 1q-7 0 -8.5 -5t-8.5 -4q-9 6 -19 7.5t-21 1.5q-14 0 -27.5 -1.5t-27.5 -1.5
q-7 0 -14 1t-14 5h-13q-21 0 -41.5 -1.5t-40.5 -1.5q-11 0 -21 0.5t-20 2.5q-21 -10 -45 -14t-49.5 -6t-50.5 -3.5t-48 -5.5q-6 1 -11.5 1.5t-10.5 0.5t-10.5 -0.5t-10.5 -1.5q-13 14 -31.5 20.5t-36.5 8.5q-14 17 -20.5 34.5t-8.5 39.5h4q7 0 6.5 7t4.5 12q5 6 13.5 8.5
t16.5 5.5t15.5 7.5t11.5 14.5h13q4 0 8.5 -0.5t7.5 -3.5q4 4 10 7t11.5 6t9.5 7t5 12q1 -3 5 -3t7.5 2t8.5 1q5 14 17 15t22 7q7 4 13 9.5t13 10.5l60 46l92 70q46 35 94 65q2 6 6 9t8 6.5t6.5 7.5t1.5 12q14 3 21.5 11t13.5 17.5t12.5 19t17.5 14.5q-1 3 -1 9q0 8 1.5 16
t7.5 14q-9 21 -31 30.5t-42 16.5h-3q-5 0 -5.5 -4.5t-5.5 -6.5q-16 4 -36 4t-39.5 -3t-39.5 -1q-3 -4 -6.5 -8t-8.5 -7q-21 -1 -42 -6l-42 -10l-23 -5q-5 -2 -7 -7t-3 -11q-6 1 -7.5 5t-7.5 6q-23 -14 -49.5 -23t-47.5 -28q-7 8 -20 8q-11 0 -24 -7t-16 -18q-10 2 -15 2
q-11 0 -18.5 -6t-14.5 -13.5t-15 -14.5t-20 -8q0 -5 0.5 -10.5t0.5 -11.5q0 -45 -5 -89.5t-5 -89.5q0 -10 1 -19.5t1 -20.5q0 -3 -4.5 -13t-6.5 -15q4 -11 3.5 -22t4.5 -21q-9 -8 -9 -22q0 -6 0.5 -12t0.5 -12v-12q-3 -20 -4 -40.5t-1 -40.5q0 -9 0.5 -30.5t2.5 -48t6 -54.5
t10.5 -51.5t16.5 -38.5t24 -15q3 0 7.5 1t4.5 5t-1.5 7t-1.5 7l1 2q8 -4 17.5 -5t19.5 -2t19 -3.5t16 -10.5q-4 -8 -4 -17q0 -12 6 -22.5t8 -21.5q-19 -6 -34.5 -13.5t-30.5 -14t-32 -12t-39 -7.5q-14 9 -24 16t-27 9q-26 35 -43 78.5t-26.5 90.5t-13 94.5t-3.5 89.5
q0 46 3.5 91.5t9.5 91.5q2 14 4 28.5t4 28.5q2 5 3.5 11.5t1.5 11.5q0 17 -1 34t-1 33q0 25 3 51q1 5 3.5 13t2.5 14q0 8 -4 11t-7 10q3 10 5 19.5t2 19.5q0 19 -7 33q5 26 15 51t35 38q20 -1 40.5 -4t35.5 -17q7 4 16 5l19 2q10 1 18 3.5t14 10.5q20 4 43 11.5t40 17.5h22
q7 5 16 7l19 5q10 3 18.5 6t13.5 10h4q23 0 45 10t43 18q5 2 15.5 7t14.5 5q14 2 28 2.5t28 3.5q32 5 63.5 11.5t63.5 6.5q11 0 20.5 -0.5t20.5 -1.5q1 -4 5 -6.5t7.5 -4.5t6.5 -5.5t2 -9.5q2 -2 4 -2q3 0 5.5 3t7.5 3h5q13 -14 25.5 -26.5t31.5 -20.5q8 -30 19 -59t11 -62
q0 -20 -6 -39q-14 -7 -20 -22t-11 -29q-28 -14 -47 -37t-39 -46h-16q-4 0 -6 -3l-9 -10q-9 -8 -19.5 -16t-15.5 -21q-31 -17 -59.5 -38t-54.5 -44q-11 -9 -22 -20.5t-22 -19.5q-6 -5 -13.5 -8.5t-13.5 -8.5q-13 -10 -24 -20.5t-23 -19.5q45 2 91 2.5t91 1.5q23 0 45 1.5
t45 1.5q4 0 7 -1.5t7 -2.5q17 -3 30 -7q48 -9 96 -16t94 -23q13 -5 19.5 -11t23.5 -3q14 -14 30.5 -22t33.5 -14q13 -20 24.5 -38t11.5 -43z" />
    <glyph glyph-name="C" unicode="C" horiz-adv-x="912" 
d="M1076 57q0 -8 -5.5 -11t-2.5 -14q-8 -1 -14 -8t-14 -7q-5 0 -8 5q-2 -7 -7.5 -10t-11.5 -5t-12 -5t-8 -9h-5q-12 0 -18.5 -10t-15.5 -10q-3 0 -4 1q-5 -1 -4 -6.5t-3 -7.5h-5q-26 0 -53 -11t-54.5 -25t-56 -26.5t-57.5 -16.5q-6 -6 -14.5 -9.5t-18.5 -5.5t-19.5 -4.5
t-16.5 -8.5q-25 -2 -50 -9t-49.5 -13.5t-50 -11t-51.5 -2.5q-8 -6 -17.5 -9.5t-17.5 -9.5q-41 6 -81.5 9t-79.5 14q0 3 -2 4t-4.5 1.5t-4.5 2t0 5.5q-9 -3 -16 -3q-10 0 -19.5 5t-20 11t-21.5 11.5t-24 5.5q-8 8 -14.5 16t-9.5 20q-4 1 -8.5 0t-7.5 -1q-6 0 -6 4
q-21 15 -30 32t-20 39q-3 7 -7.5 11.5t-6.5 10.5q-4 10 -5 21t-1.5 21.5t-3 21t-9.5 19.5q2 38 8.5 76t16.5 76q4 17 9 33t9 33q1 6 3.5 8.5t4.5 3.5l4 3q2 2 3 6l8 34q8 33 21 64t35 57q2 25 11.5 47.5t21.5 44t24 42.5t19 45l-1 2q0 4 4.5 4.5t6.5 0.5q1 16 7.5 27.5
t14 21.5t14 21.5t7.5 27.5q19 11 32.5 27.5t26 34t26.5 34t34 26.5q5 6 3 17q31 23 64 41t62 42h36q13 10 29 10q12 0 23.5 -5t22 -11.5t21.5 -13t22 -9.5q11 -15 15.5 -34.5t9.5 -36.5q-9 -27 -11 -55.5t-7 -56.5q-7 -8 -12 -17.5t-10.5 -19t-11.5 -18t-16 -13.5
q-8 -29 -25 -46t-33 -40q-15 -10 -32 -10q-14 0 -25 6.5t-20 17t-14.5 23t-8.5 24.5q7 21 22.5 36t31.5 30t28 32t12 41q0 2 -0.5 4t-0.5 4q0 4 3 7t6 5l6 5q3 3 3 7t-4 8q-38 -3 -57.5 -13t-30.5 -22t-19.5 -23.5t-24.5 -16.5q-3 -8 -8.5 -13.5t-11.5 -11t-10.5 -12.5
t-5.5 -17h-18q-4 -9 -11.5 -17.5t-15 -16.5t-13 -17.5t-3.5 -20.5q-11 -4 -16.5 -13t-15.5 -15v-6q0 -8 -3 -15t-1 -15q-12 -11 -17.5 -27.5t-11.5 -30.5q-14 -7 -19 -19t-5 -28q-15 -15 -27 -35t-21.5 -41t-17.5 -43t-17 -41v-29q-14 -16 -19.5 -37.5t-16.5 -38.5
q-2 -11 -1.5 -22t0.5 -22q0 -12 -2 -25t-7 -24q4 -15 6 -35.5t7 -41t14 -37t26 -22.5q4 -22 19.5 -33.5t35.5 -18.5t41 -12.5t37 -14.5q6 3 14 3t14.5 -2t14.5 -4q14 2 34.5 2t41.5 1.5t39 5.5t29 15q7 0 9.5 -4t9.5 -4t21 3.5t29 8t28.5 9.5t19.5 9q3 -1 6 -1h7q14 0 26 5
t26 3q46 23 93.5 39.5t96.5 29.5q6 9 14.5 13t18.5 6.5t20 4t19 4.5q6 3 10.5 7.5t11.5 7.5t15.5 4t17 2.5t16 4.5t12.5 10q14 -6 28.5 -13t24.5 -20z" />
    <glyph glyph-name="D" unicode="D" horiz-adv-x="930" 
d="M935 698q0 -57 -15 -105t-38.5 -92t-50.5 -87t-51 -91q-6 0 -8.5 -3t-4 -7.5t-4 -8t-8.5 -3.5q-9 -22 -23 -41.5t-29.5 -38t-30 -37.5t-25.5 -41h-10q-54 -78 -121.5 -140t-147.5 -111q-2 -6 -6 -10t-2 -11q-11 -6 -18.5 -15.5t-14.5 -19.5t-14.5 -19.5t-19.5 -14.5
q-15 3 -28.5 5t-27.5 3q-6 0 -12 -0.5t-11 0.5q-11 2 -18.5 8.5t-21.5 6.5q-7 0 -11 -1q-8 14 -18.5 28.5t-10.5 31.5q0 13 3.5 24t3.5 23q0 24 -8.5 47t-8.5 47q0 8 2 15.5t2 15.5q0 9 -8 16q1 5 4 10t3 11q2 8 1 17.5t-1 17.5q0 21 2 42t9 41q-1 6 -3 11l-4 10q7 21 9 47
t2 52v53q0 26 3 49q2 10 4.5 19.5t2.5 18.5q0 8 -3 14.5t-8 12.5q7 2 8 8.5t1 11.5q0 14 -5 31q4 17 5 34.5t1 34.5q0 60 -7.5 118t-9.5 117h-3q-7 0 -11 -3t-8 -6.5t-9 -6t-12 -1.5q-12 -14 -27.5 -24t-32.5 -18t-35 -14.5t-34 -12.5q-14 5 -24 16.5t-19 23.5q-1 4 -1 8v8
q0 28 13 42.5t28 34.5h5q5 0 8.5 -2t8.5 -2h3q29 24 61.5 38.5t67.5 22.5q15 15 30.5 23t36.5 8q5 0 11.5 -0.5t11.5 -1.5q41 19 77.5 32.5t84.5 13.5q6 0 8.5 3t4.5 6.5t4 6.5t7 3q0 -2 1 -6t5 -4t7.5 2.5t8.5 2.5t7 -7q11 7 21 13t22 9q15 -3 30.5 -5t31.5 -2q12 0 24 1.5
t21 9.5q4 1 4 -4q9 -8 19 -10.5t21 -3t22 -1.5t20 -7q8 -2 13 -6.5t13 -7.5q6 -2 16.5 -3t15.5 -4q5 -2 5.5 -6.5t5.5 -7.5q9 -7 24 -8.5t26 -9.5q4 -22 22 -29t35 -14q6 -6 4 -14q12 -9 21.5 -20t18 -23.5t16.5 -24.5t19 -22q-1 -9 2.5 -14t1.5 -15q12 -11 22 -29
q-6 -9 -6 -20q0 -10 3 -20t3 -20v-23zM842 720q0 29 -11 56.5t-19 54.5q-13 0 -16.5 9.5t-12.5 16.5q-19 4 -24 29q-20 8 -41 18t-35 28q-36 11 -72.5 22.5t-74.5 11.5q-7 0 -12.5 -0.5t-10.5 -0.5q-8 0 -17 -3t-17 -3q-9 0 -18 6q-20 -11 -43.5 -17t-47.5 -10.5t-47 -11
t-41 -19.5q-6 2 -11.5 3t-10.5 1q-9 0 -14 -4q-3 -2 -3.5 -5t-1 -6.5t-2.5 -5.5t-8 -1q0 -5 -0.5 -9t-0.5 -9q0 -26 5.5 -51.5t5.5 -51.5q0 -9 -1 -18.5t-4 -18.5q5 -12 5.5 -26t0.5 -28t1 -27.5t7 -25.5q-3 -15 -4 -30t-1 -30q0 -35 3.5 -69t3.5 -69q0 -9 -0.5 -19
t-1.5 -20q-2 -13 -7 -25t-5 -26q0 -9 1 -18.5t1 -19.5q0 -4 -0.5 -7.5t-0.5 -7.5q-5 -35 -8 -71t-3 -71q0 -33 2 -65.5t6 -65.5q-4 -7 -4 -16q0 -14 7 -28.5t21 -19.5q32 12 59.5 31.5t55.5 39.5q7 5 21 13.5t19 12.5t8.5 8.5t8.5 9.5l44 47q38 39 75.5 79t69.5 85
q9 14 18 27.5t17 28.5q4 5 6 11.5t7 11.5q3 4 7.5 8t7.5 8q8 9 15.5 18.5t15.5 20.5q22 32 41 64.5t42 64.5q2 20 8 37.5t12 34t10 34.5t2 40q5 7 8.5 10t3.5 12v17z" />
    <glyph glyph-name="E" unicode="E" horiz-adv-x="978" 
d="M1101 1093q0 -9 -0.5 -18t-1.5 -17q-3 -5 -11.5 -4t-13.5 1t-8.5 -1.5t-3.5 -6.5q0 -6 1 -8q-8 1 -17 2t-16 6q-14 -3 -26.5 -8t-24.5 -11t-25 -11t-27 -6q-9 -10 -23 -15t-29 -9t-28 -9.5t-21 -16.5q-22 -2 -42 -11t-39.5 -19t-39.5 -19t-43 -12q-6 -6 -14.5 -10
t-17.5 -7.5t-17 -7.5t-13 -11h-2q-4 0 -6 2t-6 2q-3 0 -4 -1q-24 -11 -48 -23t-50 -23q-51 -21 -103 -41t-100 -49q-11 -40 -18 -81.5t-25 -79.5v-47q-10 -19 -13 -42t-3 -44q0 -8 0.5 -14.5t0.5 -13.5q29 8 56.5 18t55.5 18q14 5 28.5 7t28.5 7q11 3 23 8.5t23 10.5
q30 13 61.5 23t64.5 15q10 8 22 15t24 7q9 0 15 -3q17 10 40 18t43 6q5 7 12 9.5t15 2.5q4 0 7.5 -0.5t8.5 -0.5q10 7 22 10t24 5t23.5 5.5t20.5 11.5q14 -1 22.5 -8t14.5 -17t10 -21t10 -21q-2 -8 -6 -12.5t-9 -8.5t-9 -8t-5 -11q-35 0 -67.5 -10t-64 -23t-64 -24.5
t-66.5 -14.5q-5 -5 -13 -8l-15 -5q-7 -2 -13 -5.5t-9 -10.5q-6 3 -13 3q-17 0 -33 -9t-36 -9q-8 0 -11 1q-5 -9 -14.5 -13t-20 -6.5t-20 -6.5t-14.5 -14q-3 1 -7 1h-6q-16 0 -36.5 -5.5t-29.5 -20.5q-8 2 -14 2q-14 0 -25 -5.5t-22 -12.5l-22 -14q-11 -7 -24 -10
q-26 -37 -36 -85t-14.5 -100t-8.5 -103.5t-16 -94.5q6 -16 9 -34t5 -36.5t4 -37.5t7 -36q5 -21 19.5 -37.5t20.5 -37.5q5 -1 10.5 -1.5t11.5 -0.5q36 0 63.5 14t51.5 34.5t46.5 44t48.5 41.5h19q7 8 12 17t11 17t14 13.5t20 7.5q3 15 14 23t15 24q2 -1 5 -1q8 0 12 4l15 14
q8 8 17.5 15.5t18.5 14.5q29 21 58 41.5t53 47.5q1 -1 3 -1q8 0 11 5t14 3q6 9 11 18.5t8 20.5l32 -4q16 -2 32 -2q5 0 9.5 0.5t8.5 2.5q12 -19 13 -40.5t5 -42.5q-2 0 -2.5 0.5t-2.5 0.5q-5 0 -9.5 -3.5t-9.5 -8.5l-10 -10q-5 -5 -9 -8q-11 -7 -23 -12.5t-23 -11.5
t-21 -14.5t-16 -21.5q-20 -8 -38.5 -17t-35.5 -19q-5 -5 -9 -10t-6 -11q-27 -9 -44.5 -27t-35.5 -39l-1 1q-7 0 -8.5 -5t-11.5 -3q-19 -21 -40 -39t-43 -36t-44 -36.5t-41 -39.5q-13 -4 -25 -10t-18 -18h-3q-11 0 -15.5 -5t-10.5 -13q-21 -5 -43 -11t-45 -6q-16 0 -30.5 6
t-28 15.5t-25 20.5t-21.5 21q-6 20 -15.5 41.5t-9.5 41.5q0 5 1.5 9.5t1.5 8.5q0 7 -4.5 6t-6.5 5q-2 10 -2.5 22.5t-2.5 23.5q-3 23 -7.5 47t-9.5 47q4 2 6.5 6.5t5.5 8.5q-3 8 -5.5 17.5t-2.5 19.5q0 20 15 30q0 7 -3.5 10.5t-3.5 11.5q0 2 1.5 11.5t4 21.5t4.5 23t3 15
q7 46 12 90.5t14 89.5q-10 8 -25.5 12.5t-21.5 12.5q-5 7 -8 18t-3 19q0 29 23 46.5t49 20.5q13 35 19.5 71.5t10.5 73.5l8 75q4 38 12 75h-6q-20 0 -39 -6t-39 -6h-2q-29 23 -29 55q0 19 8 38q16 6 29 16t26.5 20.5t27.5 18.5t31 10q2 29 10 58t8 58q0 6 -0.5 12t-2.5 12
q7 9 9.5 19t2.5 21q0 12 -1.5 23.5t-3.5 22.5q9 4 14 8.5t9.5 8.5t11.5 7t20 3q19 0 32.5 -7.5t23.5 -19.5t17.5 -27t14.5 -30q-2 -11 -9 -16t-12 -13q2 -16 4 -30.5t0 -30.5q10 -5 19 -5q15 0 27.5 8t17.5 22h2q3 0 5.5 -2t6.5 -2h4q11 10 24 15.5t27 10.5t27.5 10.5
t25.5 14.5q6 -3 13 -3q10 0 19.5 4t18.5 8.5t19.5 8.5t22.5 4q2 0 5 -0.5t5 -0.5q7 0 8 5t0 9q32 8 55.5 18.5t52.5 24.5q0 1 2 1q3 0 4 -3t1 -5q6 3 6.5 10t4.5 12q4 -1 11 -1q9 0 18.5 4t18.5 9t18 9t18 4q8 0 13 -4q6 3 12 8.5t13 5.5q2 0 3.5 -1t3.5 -2q5 5 9.5 8
t4.5 10q37 4 68.5 16.5t60.5 33.5q11 -2 21.5 -4.5t21.5 -2.5q6 -11 11 -22t22 -10q1 -5 1.5 -11t0.5 -11z" />
    <glyph glyph-name="F" unicode="F" horiz-adv-x="907" 
d="M1092 587q0 -16 -5.5 -33t-13.5 -31q-13 -2 -23.5 -9t-16.5 -9q-13 -2 -30.5 -1.5t-31.5 -0.5q-27 -2 -53.5 -6t-52.5 -10q-2 0 -4 -0.5t-2 -2.5t1 -4t1 -4q0 -3 -6 -3q-11 0 -15 7q-32 -8 -64 -16.5t-64 -16.5q-16 -3 -31.5 -6t-31.5 -8q-8 -2 -16 -7l-16 -10
q-5 1 -9 1.5t-8 0.5q-17 0 -36 -6.5t-33 -17.5h-7q-10 0 -14 3q-9 1 -11 -5.5t-7 -11.5q-34 -3 -67 -12t-65 -19.5t-64.5 -21t-65.5 -16.5q-4 -20 -4 -46q0 -20 3.5 -46t15.5 -44v-2q0 -5 -4 -7t-4 -7q0 -26 5.5 -49t11.5 -45t11.5 -44t5.5 -45q0 -6 -0.5 -11.5t-1.5 -11.5
q3 -9 10 -15t12 -14q1 -5 1 -9v-10q0 -17 -4 -30t-10 -24.5t-13 -23t-13 -25.5q-10 -2 -16 -2q-15 0 -24.5 8t-16.5 19.5t-13.5 23.5t-15.5 20q1 5 1.5 9t0.5 9q0 20 -6.5 39t-14.5 36q-1 34 -7 67t-17 65q2 12 3 23.5t1 22.5q0 29 -3 58t-1 58q-3 5 -6 8.5t-5 8.5h-4
q-15 0 -29 -2.5t-28 -2.5q-5 0 -9 0.5t-9 1.5q-11 11 -17 25t-6 29q0 22 12 40q25 6 49.5 14.5t47.5 20.5q3 15 3.5 30t10.5 28q-3 8 -9.5 14.5t-6.5 15.5q0 5 2 13q10 11 14 28t7 36t6.5 38t12.5 34q-2 8 -3 17.5t-1 17.5q0 12 1.5 24.5t5.5 23.5q-11 13 -18 30.5t-7 34.5
q0 33 32 42q-1 4 -1.5 7t-0.5 6q0 9 5 17t8 16q-5 13 -5 22q0 8 3 14.5t5 14.5q3 10 4.5 18t5.5 14t10.5 9t20.5 3q22 0 42.5 -13.5t31.5 -30.5q11 1 19.5 4.5t16 6.5t16 5.5t20.5 1.5q3 7 10.5 9.5t15.5 4t15 4.5t9 11q4 -3 9 -3t10 1.5t11 1.5t10 -4q26 14 55.5 20.5
t58.5 7.5q69 38 145.5 52t153.5 14q11 0 21.5 0.5t20.5 -1.5q11 -2 24.5 -7t27 -12t25.5 -15.5t20 -15.5q8 -18 8 -35q0 -8 -1 -15.5t-1 -15.5q0 -12 5 -27q-3 1 -10 1q-9 0 -15 -4t-11 -9t-9.5 -9t-8.5 -4q-8 0 -13.5 3t-11 6.5t-11.5 6t-14 1.5v4q0 11 -7 14.5t-11 10.5
q-15 1 -29.5 4t-29.5 3q-20 0 -31 -14q-5 2 -8.5 5t-9.5 2h-3q-54 0 -106 -11.5t-103 -28t-102 -35.5t-102 -33q-12 -16 -25 -23.5t-25.5 -12.5t-24.5 -10t-20.5 -16t-13 -30.5t-2.5 -53.5q-5 -6 -6 -13t-2 -13.5t-3 -12.5t-7 -11q2 -10 3 -20t1 -20q0 -42 -14 -82
q5 -8 5 -18q0 -11 -3 -20t-3 -20t4 -18q6 0 7 -4h6q18 0 31 9t28 9q3 0 7 -2t7 -2q7 0 6 5t5 7l36 6q34 6 64.5 14.5t60.5 25.5q7 -3 16 -3q8 0 17 2.5t17 2.5q7 0 11 -2q6 4 15 6.5t10 11.5h2q4 0 6 -2t6 -2h4q21 10 38 15q28 7 60 12.5t57 19.5q29 0 56.5 9.5t55.5 9.5
q13 0 24 -4q10 7 23.5 10t22.5 11q6 -1 12.5 -1.5t13.5 -0.5q30 0 57.5 8.5t56.5 12.5q7 -8 9.5 -16.5t2.5 -17.5z" />
    <glyph glyph-name="G" unicode="G" horiz-adv-x="1008" 
d="M1448 466q-2 -12 -6.5 -27t-12 -27.5t-18.5 -21t-26 -8.5q-11 0 -22 2.5t-23 2.5q-5 0 -10.5 -3.5t-10.5 -3.5t-8.5 1.5t-8.5 1.5q-3 0 -11 -2t-17 -4t-17 -4.5t-11 -3.5q-27 -9 -54 -16t-56 -9q-6 2 -18 4.5t-18 2.5q-12 0 -15.5 -10t-13.5 -15q-12 -7 -30 -8t-36 -3
t-33.5 -7.5t-22.5 -20.5q-5 1 -10.5 1.5t-11.5 0.5q-32 0 -60 -12.5t-57 -22.5q5 -9 7 -22t4 -25.5t5.5 -24t12.5 -17.5q0 -6 -2.5 -10t-5.5 -7l-7 -7q-3 -3 -4 -9q-3 -12 -3 -24.5t-14 -18.5q1 -3 1 -11q0 -10 -3 -19t-2 -20q-17 -19 -28.5 -39t-17.5 -43
q-37 -37 -75.5 -74.5t-79 -72.5t-83.5 -66.5t-89 -55.5h-7q-23 0 -36 -8t-33 -14q-15 4 -36 4q-12 0 -24.5 -1t-25.5 -1q-17 0 -30.5 4t-26 9t-25.5 10t-28 7q-62 62 -98 144.5t-36 169.5q0 40 11 78.5t11 77.5q18 36 31.5 74t27.5 76t30.5 74.5t39.5 69.5q5 26 16 45t24 42
q0 22 9.5 40.5t11.5 41.5q16 15 26 34t19 39t20.5 38.5t31.5 31.5q2 7 2.5 15.5t4.5 13.5l21 23q10 13 18.5 26.5t18.5 24.5q6 6 13 10t12 9t3.5 13t3.5 13q2 2 6 4t7 4q13 9 22 18t25 13q14 11 25.5 22t23.5 20t26 14.5t35 5.5q4 0 8 -0.5t8 -0.5q41 -38 51 -93
q-11 -14 -17.5 -30t-14.5 -32q-17 -6 -32 -17.5t-29.5 -23.5t-30 -21t-34.5 -9q-8 -7 -25.5 -22.5t-36 -32.5t-34 -32t-19.5 -21q-3 -5 -5 -9t-4 -9l-26 -44q-22 -38 -45 -74.5t-40 -76.5q-8 -18 -13 -36t-10 -38q-2 -6 -5 -12t-5 -11q-11 -21 -18 -39t-8 -42
q-25 -56 -46.5 -112.5t-32.5 -116.5q6 -20 5.5 -40.5t-0.5 -40.5q0 -25 3.5 -41.5t10 -30t14.5 -28t17 -34.5q15 -12 27 -25.5t23 -29.5q38 -19 77 -19q28 0 57 9t56.5 22.5t53.5 29.5t50 31q42 25 73 54t56.5 61t47.5 68.5t46 77.5q1 5 4 12l6 15q3 8 5.5 14.5t2.5 8.5
q0 8 -3.5 11.5t-3.5 7.5q0 8 4 11t9.5 6t10 7t4.5 15q-2 1 -7 1t-10 -1t-10 -1q-12 0 -20 8q-5 -2 -10 -6.5t-9.5 -9.5t-8.5 -9t-7 -4q-5 0 -7.5 2t-6.5 2q-17 0 -30 -8t-28 -13q-3 0 -6 0.5t-6 0.5q-11 0 -21.5 -3.5t-20 -7.5t-19.5 -7t-20 -2q-22 -8 -40.5 -17t-42.5 -7
q-7 -3 -14.5 -6.5t-14.5 -8.5q-6 -2 -9 -2q-5 0 -8 5q-8 -9 -21 -12.5t-27 -6t-26.5 -6t-19.5 -13.5q-11 9 -26 9t-29 -5.5t-30 -5.5q-6 0 -8 2q-4 11 -9 22t-16 16q-2 11 -3.5 21.5t-1.5 20.5q0 27 16 49q14 5 28.5 8.5t28.5 8.5q11 -2 22 -3t22 -1q41 0 80 10.5t77 22.5
q36 11 73 20t74 20q35 9 69 20.5t71 14.5q24 17 58.5 23t63.5 13q46 11 91 22.5t92 20.5q52 11 101.5 27t99.5 34h10q17 0 35 4t36 4q5 0 8.5 -0.5t7.5 -0.5q3 0 15 4.5t17 6.5q13 -14 29 -25t28 -25z" />
    <glyph glyph-name="H" unicode="H" horiz-adv-x="925" 
d="M945 353v-7q0 -3 -1 -6q-11 -21 -27 -32t-40 -11q-16 0 -23.5 3t-19.5 11q-18 -2 -41 -3.5t-46 -5t-43.5 -9.5t-34.5 -18q-9 -69 -9.5 -137.5t-2.5 -137.5q8 -21 11 -46.5t4 -46.5q7 -12 11 -24.5t8 -25.5t9.5 -25t14.5 -22q8 0 14.5 -1.5t13.5 -3.5v-6q0 -15 9 -22
t20 -15q3 -11 3 -21q0 -17 -7.5 -32t-24.5 -21q-10 0 -19 2.5t-19 2.5q-7 0 -15 -2q-5 2 -8.5 5.5t-7.5 6.5t-8.5 5t-11.5 1q-5 14 -16 26t-27 10q1 4 1 12q0 14 -5.5 26t-16.5 19q-5 23 -9 50.5t-17 47.5q0 29 -6 55.5t-11 54.5q4 16 4 36q0 14 -1 27.5t-1 26.5
q0 14 2 27.5t10 26.5q-6 10 -8 20.5t-2 21.5q0 17 2 33l4 32q-2 1 -7 1q-10 0 -17 -4l-15 -7q-5 1 -9 1h-9q-15 0 -29.5 -4.5t-25.5 -15.5q-34 0 -68 -6.5t-67.5 -15.5t-66.5 -19.5t-66 -18.5q-8 -39 -12 -78.5t-4 -80.5v-24q0 -13 2 -25q1 -8 5.5 -14.5t4.5 -14.5
q0 -7 -3 -11q7 -12 21 -21q15 5 26 5q18 0 34 -8.5t34 -11.5q-4 -14 -12 -27.5t-10 -29.5q-4 -2 -7.5 -2t-6.5 -0.5t-4.5 -3.5t0.5 -12q-14 -7 -28 -9.5t-28.5 -3.5t-29 -1t-29.5 -1q0 6 -2.5 9.5t-6.5 5t-8.5 3.5t-7.5 5q-8 7 -12.5 18.5t-9 24t-9.5 24.5t-12 22
q-2 22 -3 43t-1 43q0 41 3 80.5t5 81.5q-9 9 -20.5 8t-22.5 2q-12 15 -20 33.5t-8 38.5q0 10 3 21q9 3 20 6t12 16q7 -4 17 -4t20 3t20 5q4 16 6.5 31.5t0.5 32.5q14 21 18.5 46t6.5 48v14q0 7 1 14q2 11 6 25t7 26q5 19 6.5 36t1.5 35v4q0 5 -4 7.5t-4 7.5l1 2
q4 32 9.5 63.5t15.5 62.5q-8 23 -8 52q0 38 12 73q-6 16 -6 31q0 12 1.5 24t0.5 24q10 5 16.5 14t15.5 15q30 1 50.5 -20t20.5 -51q0 -23 -13 -44q4 -19 4 -44q0 -37 -5 -74t-3 -75q-6 -14 -5.5 -34t-1.5 -34t-6 -28.5t-5 -28.5q-1 -23 -1.5 -46t-5.5 -44q-2 -8 -5.5 -13.5
t-5.5 -12.5q-4 -21 -2.5 -42.5t-0.5 -43.5q-1 -7 -3.5 -14t-2.5 -15q0 -4 2 -10q91 8 181 27t181 33q7 13 7 27q0 8 -3 16q10 33 15.5 66.5t9.5 66.5t7 66.5t8 66.5l6 34q3 17 8 33q2 6 4.5 12t2.5 11t-5.5 7t-5.5 5q0 2 1.5 2.5t2.5 -0.5q5 9 6 19t1.5 20t2.5 19.5t8 17.5
q-1 7 -4 13t-3 14q-1 1 0 2q2 9 2.5 15.5t0.5 15.5q0 12 11 19q-5 17 -7 37t-2 39q0 26 12.5 43.5t41.5 17.5q15 0 28.5 -6t22.5 -17q5 -23 5 -43q0 -14 -1.5 -26.5t-1.5 -26.5q0 -11 2 -20.5t4 -19.5q-9 -14 -13 -31t-5.5 -35t-2 -36.5t-1.5 -33.5q-3 -33 -9.5 -65
t-14.5 -64q3 -11 3 -20q0 -18 -5 -35.5t-3 -34.5q-7 -18 -9 -36.5t-3 -38.5l-2 -39q-1 -19 -7 -37q2 -5 7.5 -5.5t3.5 -8.5q23 7 49 6.5t49 -0.5q15 0 30 0.5t30 3.5q15 4 30.5 9.5t30.5 5.5q21 0 32 -15q2 -11 3 -22t1 -22z" />
    <glyph glyph-name="I" unicode="I" horiz-adv-x="383" 
d="M301 -50q0 -16 -11 -29t-19 -25q-14 -7 -26.5 -8.5t-26.5 -6.5q-5 -1 -11 -7q-8 1 -16 6.5t-16 7.5q-11 4 -28.5 5t-25.5 10q-14 14 -23.5 37t-15 49t-8 51.5t-2.5 44.5q0 32 4 64t12 62v5q0 5 0.5 8.5t0.5 8.5q0 3 -0.5 6t-3.5 5q13 33 19 68t9.5 70.5t8 71t13.5 69.5
q-1 6 -1.5 13t-0.5 13q0 18 4 35.5t5 36.5q1 6 0 12.5t-1 13.5q0 44 4.5 86t4.5 85q0 23 -3.5 44.5t-3.5 43.5q0 10 1 19.5t6 17.5q22 15 52 15q22 0 38 -12q-1 -2 -1 -6q0 -5 1 -9t1 -9v-4q0 -2 -1 -4q7 -12 9.5 -25.5t2.5 -27.5q0 -13 -1 -25.5t-1 -25.5q0 -18 0.5 -36
t0.5 -36q0 -48 -4.5 -94.5t-6.5 -94.5q-2 -41 -10.5 -80t-11.5 -79q-1 -8 -0.5 -15.5t0.5 -16.5q0 -23 -9 -45.5t-9 -47.5q0 -12 4 -21q-6 -16 -10.5 -38t-8 -45.5t-5.5 -46t-2 -39.5q0 -24 6 -48.5t20 -44.5q10 -3 24 -3t28 -1t26 -5t18 -16q1 -2 1 -4v-3z" />
    <glyph glyph-name="J" unicode="J" horiz-adv-x="816" 
d="M867 1007q-14 -14 -28 -27.5t-22 -33.5q-12 -2 -25 -5t-25 -3q-8 0 -16 2.5t-16 2.5q-7 0 -7 -7t-4 -11q-8 3 -17 4t-18 1q-21 0 -41.5 -6.5t-40.5 -15t-40 -17.5t-41 -14q1 -1 1 -5q0 -7 -4 -11.5t-4 -11.5v-3q12 -26 24 -50t23 -50q6 -13 10 -25t9 -26q2 -8 7 -10.5
t10 -7.5q-2 -6 -2 -11q0 -19 9 -36.5t9 -35.5q0 -5 -2 -13q12 -17 17 -39t9 -44.5t8.5 -44t16.5 -38.5q-7 -12 -9 -25.5t-2 -27.5q0 -32 6.5 -64.5t6.5 -64.5q0 -22 -5 -36q2 -15 10 -22q-4 -7 -3 -16.5t-4 -16.5q5 -20 5 -37q0 -25 -6.5 -49.5t-6.5 -50.5q0 -7 1 -13.5
t4 -14.5q-2 -6 -7.5 -7.5t-7.5 -6.5v-3q0 -15 -3.5 -26.5t-8.5 -21.5l-9 -21q-4 -11 -7 -24q-26 -14 -49.5 -27t-45.5 -35q-4 -1 -12 -1q-7 0 -14 0.5t-15 0.5q-11 0 -23 -3q-16 15 -39 21.5t-43 17.5q-7 9 -16 16l-18 14q-9 7 -17 14t-14 18h-14q0 1 0.5 2t0.5 2q0 5 -5 6
t-3 7q-12 9 -20 21t-16 24.5t-16 24t-20 20.5v2q0 5 -3 6.5t-1 9.5q-16 21 -27 44t-20.5 47.5t-19 48.5t-22.5 46q-2 10 -2 20v20q0 29 5 55.5t19 51.5q8 2 18.5 1.5t19.5 -0.5t17.5 1.5t15.5 8.5q-1 -4 2 -5.5t6 -1.5q5 0 9.5 1.5t9.5 1.5q2 0 5.5 -1t3.5 -6q6 2 11 5t11 6
q17 -15 40 -22.5t47 -14t47 -14t41 -21.5q5 -10 5 -21q0 -17 -14 -29.5t-30 -17.5q-23 16 -51.5 23t-53.5 20q-20 -8 -43.5 -8.5t-45.5 -2.5q-5 -4 -3.5 -14t-3.5 -15q13 -39 34 -75.5t38 -74.5q2 -6 7 -8.5t10 -5.5v-3q0 -6 3 -8.5t1 -10.5q12 -2 17.5 -13t11.5 -19
q4 -5 8.5 -9t8.5 -9q17 -19 37 -40t42 -32q3 -2 5.5 -2t5.5 -1q11 -6 24 -11.5t27 -5.5q7 0 14.5 3t9.5 10q5 9 7.5 20.5t4.5 21.5q8 29 15.5 58t12.5 58q-2 13 -3 26t-1 26q0 23 1.5 46t1.5 46q0 21 -2.5 41.5t-10.5 40.5q2 4 5 6t3 7q0 6 -3.5 16.5t-8.5 13.5q7 10 7 25
q0 17 -5 34t-5 34q0 11 3 22q0 7 -7 7t-8 7q0 2 0.5 4t0.5 4q0 13 -3.5 24.5t-4.5 24.5q-9 10 -13 25t-8 30.5t-9 29.5t-16 23q0 13 -3.5 27t-17.5 20q-6 23 -16 43t-27 36q0 24 -9.5 37t-23.5 30q-23 -2 -46 -9t-46 -7q-6 0 -11.5 0.5t-11.5 1.5q-5 -3 -6 -9.5t-1 -11.5
q-18 -2 -35 -6.5t-34.5 -9t-34.5 -7.5t-35 -2q-7 -14 -20 -18.5t-27.5 -6.5t-28.5 -5t-22 -13q-4 4 -10 4q-8 0 -15.5 -4t-16.5 -4q-7 0 -11 4q-7 -5 -15.5 -7.5t-13.5 -10.5q-17 3 -30 13t-21.5 24t-12.5 30.5t-4 32.5q6 11 19 15t21 14q7 -3 13.5 -5.5t14.5 -2.5
q10 0 17 4t15 4q5 0 11 -3q7 6 17 7.5t19.5 3t17.5 4.5t11 13q9 -3 19 -3q12 0 24 3.5t22 7.5t18 7.5t11 3.5q5 0 10 -2.5t10 -2.5q10 0 19.5 6t17.5 12q8 -4 15 -4q14 0 28.5 8t31.5 8q7 0 11 -1q23 11 55.5 20t58.5 9q14 12 33 17t39 8t39.5 8t35.5 17q5 -2 12 -2.5
t10 -4.5q5 2 7 7t3 10q1 1 4 1q5 0 4 -4t4 -4q3 0 10.5 3.5t18.5 7.5t24 7.5t25 3.5h4l5 1q5 2 11 3.5t11.5 3.5t7.5 2q22 7 45.5 12t46.5 5q22 0 41 -7.5t32 -26.5z" />
    <glyph glyph-name="K" unicode="K" horiz-adv-x="782" 
d="M1402 -224q0 -11 -5 -21q-20 -11 -41.5 -15.5t-42.5 -4.5q-10 0 -21.5 0.5t-20.5 2.5q-3 1 -7 4t-8 3q-10 0 -19 -3.5t-19 -3.5q-5 0 -9.5 3t-9.5 4q-7 2 -14 1t-15 -1q-11 0 -19.5 3t-15.5 11q-25 3 -49 9.5t-48 14t-48 14t-49 8.5q-6 7 -14 10.5t-12 11.5q-5 0 -7 -1.5
t-7 -1.5q-17 14 -36.5 24t-40 19t-40 18.5t-36.5 24.5h-5q-8 -1 -13.5 3.5t-13.5 4.5q-5 0 -8 -1q-3 8 -9 13t-12.5 9.5t-12.5 9t-9 11.5q-25 9 -48.5 21.5t-41.5 32.5q-20 2 -33 12.5t-24 26.5q-24 8 -44 21t-39.5 27t-41 25.5t-48.5 16.5q-1 7 -6 10.5t-11.5 6t-12.5 4.5
t-9 8q-3 0 -6 0.5t-6 0.5t-6.5 -0.5t-6.5 -0.5l1 3q0 4 -2.5 5t-6.5 2t-7 3t-3 9h-3q-11 0 -20 4t-20 6q-2 -11 -2 -21v-18q0 -45 10 -94.5t31 -88.5q21 -8 36 -21t29 -30q1 -27 -19.5 -45.5t-47.5 -18.5q-15 0 -27.5 7.5t-20.5 21.5q-6 0 -11 -2.5t-12 -2.5q-3 0 -6 1
q-10 17 -19.5 30t-12.5 35q-11 5 -13.5 18t-11.5 21q-4 45 -10.5 90t-6.5 90q0 10 1 20.5t2 21.5q-2 5 -5.5 9.5t-5.5 9.5q-20 -5 -41.5 -9.5t-43.5 -4.5q-14 0 -34 4.5t-31 12.5q-8 5 -11.5 18.5t-3.5 23.5q0 17 6 34.5t16 30.5q49 20 91.5 49t83.5 63q1 10 3.5 20t2.5 21
q0 12 -6 23q6 6 6 15.5t5 17.5v6q0 4 -0.5 8t-3.5 8q7 39 11 77.5t4 79.5q0 3 3.5 16.5t4.5 18.5q4 23 5.5 45.5t4.5 45.5q1 8 4 21t3 18q0 7 -2.5 9.5t-4.5 8.5q6 23 6.5 46.5t3.5 46.5q17 7 27 14t29 7h2q2 -12 9 -22.5t14.5 -21t13.5 -20t6 -18.5q0 -17 -3 -37t-5 -37
q-5 -45 -9 -88.5t-12 -88.5q3 -14 3 -26q0 -18 -3 -36t-3 -37q0 -9 1.5 -19t5.5 -18q34 9 61 37q4 4 8.5 10.5t9.5 10.5q10 8 21.5 14.5t22.5 13.5q26 17 50.5 35.5t49.5 36.5q74 54 143.5 112.5t135.5 123.5q3 17 12 27t16 24q19 7 33 21q6 -2 12.5 -2.5t13 -0.5t13 -0.5
t11.5 -3.5q1 -15 3 -27t12 -23q0 -2 0.5 -4t0.5 -4q0 -11 -6 -18t-7 -17l-52 -52q-26 -26 -48 -56q-8 -1 -14 -5t-11.5 -8.5t-11.5 -8.5t-13 -6q-18 -24 -41 -43.5t-47 -37.5t-47.5 -36.5t-43.5 -40.5q-21 -10 -40.5 -23.5t-31.5 -33.5h-5q-5 0 -8 -2.5t-8 -2.5
q-54 -47 -112 -88.5t-111 -90.5v-25q17 -10 37 -18.5t39.5 -18.5t37 -21.5t30.5 -27.5q2 1 5 1q9 0 14 -5.5t17 -3.5q4 -16 18 -23t28 -12q12 -12 22 -22.5t29 -13.5q2 -4 3 -9t4 -9q19 -6 36.5 -17t34.5 -22.5t34.5 -22t37.5 -16.5q3 -10 11.5 -14t13.5 -12h18q3 -5 8 -9.5
t7 -12.5q8 -2 18 -5.5t18 -8.5q3 -3 4.5 -7t5.5 -7q6 -5 18.5 -7.5t21.5 -7.5q18 -10 35 -22.5t36 -23.5l39 -21q10 -5 18.5 -11t17.5 -11q18 -8 38.5 -10.5t37.5 -10.5q5 -3 7 -7.5t7 -7.5q8 -5 25 -7t28 -7q14 -6 27.5 -11.5t27.5 -13.5q30 -2 59.5 -7t58.5 -10t58.5 -9
t59.5 -3q0 -2 2.5 -2.5t4.5 -0.5q7 -11 12 -22t5 -23z" />
    <glyph glyph-name="L" unicode="L" horiz-adv-x="885" 
d="M997 229q0 -20 -6.5 -32.5t-14.5 -28.5q-2 1 -5 1q-6 0 -11 -3t-10 -5q-29 -32 -59.5 -62t-67.5 -53q-10 -6 -20 -11.5t-21 -10.5q-4 -2 -7.5 -3.5t-6.5 -3.5q-7 -4 -14.5 -13t-17 -18.5t-20.5 -16t-24 -5.5q-8 -5 -14 -13t-14 -16q-43 -15 -78.5 -39.5t-73.5 -47.5
q-23 -15 -46 -24q-5 -2 -11.5 -3t-13.5 -3q-33 -8 -66.5 -13t-67.5 -5q-42 0 -81 10q0 3 -2 4t-4.5 2t-4.5 2.5t0 5.5q-22 2 -38.5 11t-21.5 32q-3 -2 -5 -5t-7 -2q-14 20 -31 37t-25 41q-2 5 -2.5 9.5t-1.5 9.5q-5 14 -18 14q2 4 2 10q0 3 -0.5 6t-0.5 6q0 5 3 10
q-10 23 -14 45.5t-4 46.5q0 31 3 61.5t3 61.5q6 12 9.5 28t12.5 26q-1 6 -4 6.5t-3 5.5q0 18 7 39t7 43q9 5 11.5 15t10.5 16v5q0 15 3.5 30t7 29.5t6 29t1.5 28.5q2 3 5.5 11.5t7 18t6 18.5t2.5 13q0 6 -2 11t-2 11q0 5 3 14.5t5 15.5q4 17 7.5 35.5t6.5 35.5
q9 55 13 110.5t5 111.5q14 8 29.5 15t32.5 7q5 0 10 -1t10 -3q5 -20 16 -32t20 -29q-6 -16 -8 -33l-3 -34q-1 -17 -4 -33.5t-10 -31.5q2 -5 2 -10v-10q0 -14 -2.5 -27t-5.5 -26.5t-5 -26.5t0 -26q-3 -5 -6 -7.5t-4 -7.5l-2 -19q-2 -11 -3.5 -21.5t-3.5 -21.5
q-7 -30 -15.5 -60t-8.5 -62v-6q-9 -14 -14 -34.5t-3 -37.5q-11 -29 -21 -57t-10 -58q0 -5 0.5 -10.5t1.5 -10.5q-8 -20 -10 -40.5t-2 -40.5q0 -14 1.5 -32.5t5 -38t8.5 -37.5t11 -29q23 -37 60.5 -58.5t79.5 -27.5q17 6 27.5 7t29.5 0q16 8 32.5 12t33.5 9q5 2 10.5 4t9.5 4
q5 2 11 9t11 12q21 6 40 16.5t37 21.5l37 22q19 11 40 19q8 3 9.5 8.5t5.5 13.5q2 -2 6 -2q12 0 17 7.5t12 15.5q13 2 25 7.5t18 17.5q25 5 44 18t37 28.5t36 30t41 23.5q3 5 4 9t3 9q17 2 27 9.5t23 15.5q28 -3 40 -25z" />
    <glyph glyph-name="M" unicode="M" horiz-adv-x="1109" 
d="M1068 -259q0 -9 -6.5 -16t-15.5 -11.5t-18.5 -8.5t-16.5 -7q-11 6 -22.5 8t-20.5 10h-7q-16 0 -25 -4q-14 5 -23 14.5t-17 20t-16 20.5t-20 17q-18 50 -32 101t-21 104q2 5 3 11t1 11q0 4 -1.5 8.5t-6.5 5.5q5 8 6.5 18.5t1.5 19.5q0 20 -4 33q6 5 5 16.5t5 16.5
q-5 17 -5 33q0 22 5.5 43t5.5 43q0 5 -0.5 10t-1.5 10q5 16 9.5 32.5t4.5 33.5q0 12 -4 20q13 46 18.5 91.5t10.5 92.5q-1 2 -2 3t-1 3q0 5 5.5 8t4.5 11q-12 -12 -19.5 -28t-14 -32t-14 -31.5t-19.5 -27.5q-1 -11 -6.5 -21t-5.5 -22q-1 0 -2 0.5t-3 0.5q-4 0 -5.5 -5
t-6.5 -3q-23 -45 -50.5 -88t-71.5 -69q-8 3 -15 3q-13 0 -25.5 -7.5t-16.5 -7.5q-10 0 -24.5 10.5t-29.5 11.5q-16 11 -26.5 22.5t-31.5 13.5q-14 21 -27.5 40t-26 37.5t-22 39.5t-14.5 47q1 2 1 4q0 6 -5.5 5t-5.5 6v7q0 8 -2.5 14.5t-1.5 14.5q-7 11 -11 23t-14 21v9
q0 6 -0.5 11.5t-3 10t-7.5 5.5q-1 36 -14.5 73.5t-24.5 72.5q-8 -26 -12 -52.5t-4 -53.5v-17q0 -8 2 -16q-3 -5 -8.5 -7t-6.5 -8q-1 -5 -0.5 -10t-0.5 -10q-2 -24 -6 -46q-6 -33 -14 -66.5t-8 -68.5q0 -2 0.5 -5.5t0.5 -5.5q-16 -14 -17 -35t-5 -40q-5 -28 -12 -55.5
t-12 -56.5q-3 -16 -5 -31.5t-4 -31.5q-1 -9 -6.5 -15t-7.5 -14q-1 -7 -0.5 -15.5t0.5 -15.5q0 -12 -2 -22.5t-12 -18.5q2 -26 9 -44.5t16 -41.5h25v-4q0 -10 3.5 -18t14.5 -7q-1 -4 -1 -10q0 -9 3.5 -16.5t5.5 -16.5q-20 -33 -43 -49t-63 -16h-16q-5 16 -12 31t-13.5 30
t-11 30.5t-4.5 32.5q0 4 1 7.5t1 7.5q0 5 -4 6t-4 10q0 7 -0.5 13t-0.5 13q0 33 5 65.5t7 65.5q5 5 5 13t5 13v7q0 18 4 36t9 35t9 35t4 36v16q0 7 6.5 6.5t7.5 7.5q2 14 2.5 27.5t2.5 27.5q5 27 11 54.5t6 55.5v3q0 3 5 12.5t5 18.5q0 7 -3 13q1 -1 4 -1q4 0 5.5 2.5
t4.5 4.5q-3 4 -3 8q0 5 1.5 9.5t1.5 9.5q0 7 -7 10q12 22 17.5 47t8 51t4.5 52.5t9 50.5q-2 6 -2.5 13t-0.5 13q0 4 -1 8.5t1 8.5q0 2 1 5l2 6q2 7 2.5 14.5t1.5 15.5q2 23 1.5 47t1.5 48q-3 4 -6 6.5t-4 7.5q8 14 17.5 26.5t25.5 19.5q3 -11 16 -11q6 0 15 3t12 8
q17 -6 34.5 -5.5t32.5 -8.5q3 -15 8 -31t14 -29q2 -13 4 -31.5t4 -38t6 -37t11 -27.5q1 -18 6 -36t11 -34.5t10.5 -30.5t4.5 -23q0 -8 -2.5 -10.5t-4.5 -8.5q4 -11 11 -18.5t15 -17.5q15 -57 39 -111t58 -104q9 -1 14.5 -5t17.5 -2v-7q0 -10 4 -14q9 -6 21 -6q13 0 20.5 7.5
t14.5 17.5t14 19t19 12v2q0 8 3.5 13.5t3.5 12.5q11 8 17 20t11 24.5t11.5 23.5t17.5 18q14 43 34 80t42 75q0 3 -1 6.5t-1 6.5q0 1 2 9q5 10 9 19t7 20q10 31 18.5 61t25.5 57v25q18 36 25.5 76t18.5 78q2 11 7.5 22.5t13.5 16.5q-3 6 -3 12q0 8 2.5 14.5t4.5 13.5
q-3 7 -3 18q0 14 8 26.5t24 16.5q10 -3 17 -10t13.5 -14.5t14 -12t19.5 -2.5q8 -15 11 -31.5t3 -33.5q0 -23 -4 -47.5t-3 -49.5q-8 -16 -11.5 -34.5t-6.5 -37.5t-7 -37t-14 -34q-3 -45 -6.5 -88t-10.5 -86l-9 -57q-2 -7 -4 -15.5t-2 -14.5t1 -12.5t6 -9.5q-7 -10 -10 -24
t-6 -30l-5 -31q-2 -15 -8 -27v-11q0 -40 -14 -82v-5q0 -5 -0.5 -8.5t-0.5 -8.5q0 -7 4 -11q-8 -26 -15 -53.5t-10 -56.5q-3 -39 -1 -79.5t-10 -78.5q6 -18 8 -39l4 -42q2 -21 6.5 -40.5t17.5 -32.5q1 -2 1 -6q0 -8 -4 -12q2 -10 7 -17t10 -13.5t8.5 -14.5t3.5 -20
q8 -11 25 -17t34.5 -12t30.5 -15.5t13 -27.5z" />
    <glyph glyph-name="N" unicode="N" horiz-adv-x="956" 
d="M885 925q-6 -10 -8.5 -21t-3.5 -22h-7q-8 0 -14 2.5t-14 4.5q4 -38 5 -77t1 -77q0 -48 -1 -95.5t-1 -95.5q0 -23 -2.5 -45.5t-12.5 -43.5q2 -17 3 -32.5t1 -32.5q0 -47 -5.5 -93.5t-13.5 -92.5q-3 -18 -5.5 -36.5t-7.5 -35.5q-2 -5 -5.5 -10t-5.5 -10
q-12 -26 -26.5 -51.5t-34.5 -46.5q-15 -1 -29 -8t-26 -7q-11 0 -18 11l-10 -4q-5 -2 -11 -3q-34 14 -64.5 34t-50.5 52h-4q-9 0 -13 4q-5 5 -10.5 12.5t-9.5 13.5q-12 19 -26 38t-33 32q-8 30 -24 51.5t-33 46.5q-13 50 -48 93q5 5 5 7q0 5 -3.5 8.5t-3.5 7.5t2 6
q-13 14 -21.5 31.5t-16 35.5t-16 36t-20.5 33q-11 -7 -13.5 -17t-2.5 -21q0 -8 0.5 -16t0.5 -16q0 -20 -4.5 -39t-6.5 -39q-1 -14 -0.5 -31t-1 -34t-5.5 -33t-14 -27q-6 -57 -15 -114t-17 -114q-2 -10 -4 -25t-4.5 -30.5t-4 -30t-1.5 -23.5q0 -10 5 -19.5t5 -18.5
q0 -7 -4.5 -8.5t-5.5 -7.5q7 -22 7 -50q0 -8 -1 -16.5t-3 -16.5q-2 -5 -7 -9.5t-5 -8.5t4 -6q-6 -6 -15 -8t-13 -11q-10 8 -20 14.5t-19 14.5l-3 1q-7 0 -11.5 -4.5t-11.5 -4.5q-2 0 -3.5 0.5t-3.5 0.5l-6 26q-3 13 -8 24q8 21 10.5 47.5t5.5 53.5t9 51.5t22 42.5
q0 8 -5.5 11t-5.5 13q0 2 1.5 7t3 11t3 11.5t2.5 8.5q8 39 12.5 80t24.5 76q-1 4 -1 12q0 17 3.5 33t3.5 33q0 14 -3 26q3 11 8.5 21.5t5.5 21.5q0 10 -7 14q5 4 6.5 9t2 10t2 9.5t7.5 7.5q-1 10 -1.5 19t-0.5 19q0 37 4 73.5t4 74.5q0 37 -6 72l11 22q-10 8 -13 26t-4 39
t-3.5 41.5t-11.5 33.5v9q0 16 -2 31t-2 30v9q5 2 7.5 7t3.5 10h4q12 0 24 2t24 2h13q12 -9 21 -21t22 -22v-18q9 -12 14 -26t10.5 -29t11.5 -29t17 -24q-2 -10 -2 -16q0 -13 2.5 -26t3.5 -25q4 -5 7 -12.5t10 -9.5q5 -39 20.5 -74t22.5 -73q8 -8 12 -19.5t8.5 -22.5
t10 -20.5t16.5 -13.5q6 -24 15 -48t28 -41q0 -20 6.5 -34.5t15 -27t15.5 -24.5t9 -26q14 -21 32.5 -39t38 -34.5t38.5 -33.5t35 -36q11 -1 18.5 -4.5t17.5 -5.5q7 5 11.5 12.5t8.5 15.5t8.5 15.5t11.5 13.5q0 2 -0.5 3.5t-0.5 3.5q0 11 3.5 17.5t8.5 14.5v26q8 15 11 32
t3 34q0 14 -1 28.5t-1 29.5q0 9 1 18.5t4 17.5q2 2 7 6.5t5 5.5q0 5 -3 10t-3 10q0 7 6 11v6q0 5 -1.5 9.5t-6.5 6.5q5 6 7 14.5t2.5 18t0 18.5t-0.5 17q0 9 1 19t8 17q-3 12 -4 23.5t-1 23.5q0 21 2 42t2 43q0 8 -1 16.5t-1 16.5t3.5 7.5t3.5 4.5q0 7 -1.5 14t-2.5 14
q-2 17 -3 34.5t-1 35.5q0 11 0.5 22.5t3.5 22.5q-6 9 -7.5 17.5t-2.5 15.5l-2 15q-1 8 -6 16q-1 1 -1 6q0 8 4 12q-5 17 -13.5 33t-10.5 35q-11 6 -16.5 19.5t-5.5 24.5q0 13 7 25.5t22 12.5q6 0 11.5 -3.5t11 -8t11 -8t11.5 -3.5q4 0 12 2q11 -15 22.5 -27.5t23.5 -25.5
q0 -17 6 -31t13 -26.5t12.5 -24.5t4.5 -26q2 -7 8 -10t11 -8z" />
    <glyph glyph-name="O" unicode="O" horiz-adv-x="1102" 
d="M1046 559q0 -57 -7.5 -110.5t-21.5 -108.5q-13 -10 -16 -25t-10 -28q-6 -11 -16 -23.5t-22 -26t-24 -27.5t-20 -28q-30 -10 -43 -43q-16 -6 -33 -13.5t-24 -25.5q-37 -19 -69.5 -43.5t-70.5 -42.5q-5 -5 -11.5 -7.5t-13 -5.5t-12 -7.5t-6.5 -11.5q-4 0 -5.5 1.5t-6.5 2.5
q-11 -6 -10 -19q-4 2 -11 2q-12 0 -23.5 -7.5t-19.5 -15.5q-12 -6 -27.5 -12t-22.5 -20q-4 4 -12 4q-9 0 -19 -5.5t-15 -12.5q-14 0 -26.5 -4.5t-25.5 -9t-25.5 -8.5t-26.5 -4q-8 0 -12 4t-10 7q-5 -4 -17.5 -9t-18.5 -5q-11 0 -21.5 3t-21.5 7l-21 7q-10 3 -22 4
q-9 8 -21.5 16.5t-24.5 5.5q-5 15 -15 26t-23 20q-3 2 -6.5 3.5t-5.5 3.5q-5 3 -9 12t-9 9q-1 0 -2.5 -1t-2.5 -1q-2 9 -6 17.5t-14 10.5q-8 26 -11 52t-8 52q-2 8 -4.5 19.5t-2.5 20.5q0 15 4.5 36t7.5 37q12 58 32 112.5t43.5 108.5t48.5 107t47 108q4 0 5 2l3 5
q2 3 3.5 5t6.5 2v3q-1 6 2.5 10t1.5 13q16 18 27 40.5t22.5 44.5t24.5 43t33 36v7q-1 5 0.5 10.5t6.5 7.5q18 18 30 36t24.5 35.5t28 33t39.5 28.5q11 5 16 15t13 14q4 2 8.5 2.5t8.5 2.5q17 5 34 12.5t36 7.5q24 0 36.5 -13.5t20 -32.5t12.5 -40t16 -36q30 -2 61 -6.5
t54 -25.5q2 -1 5 -1q5 0 5 4t5 4h3q30 -18 57.5 -39.5t54.5 -44.5q5 -4 10.5 -7.5t9.5 -8.5q5 -6 9.5 -14t8.5 -14q50 -87 67 -187q2 -11 3.5 -21t1.5 -19t4 -11.5t4 -10.5zM969 508q0 40 -10 77q5 2 6.5 6.5t1.5 9.5v5l-12 22q-1 14 -5.5 26t-10.5 24t-11.5 24t-7.5 26
q-16 12 -28.5 27.5t-22.5 32.5q-7 3 -13 4t-4 11q-18 5 -32.5 14.5t-28.5 21.5q-23 5 -45.5 12.5t-45.5 7.5q-16 0 -31 -6q5 -8 5 -17.5t2 -18.5q32 -8 39 -39q-5 -3 -9 -7.5t-7.5 -8t-8.5 -6.5t-12 -3q-14 0 -21.5 5t-23.5 2q-17 15 -33 31.5t-36 29.5q-3 10 -9.5 18
t-13 15.5t-12 16t-5.5 19.5q0 7 1 10q-6 2 -9 2q-8 0 -15 -5.5t-16 -7.5q-8 -24 -23 -42t-31 -35t-29.5 -35.5t-19.5 -45.5q-32 -40 -59 -90.5t-41 -98.5q-23 -26 -36 -55t-15 -64q-5 -3 -8 -8l-10 -20q-2 -5 -7 -8v-5q0 -8 -3 -14.5t-6.5 -12.5t-6.5 -11.5t-3 -12.5
q0 -8 4 -16q-11 -2 -14.5 -11.5t-9.5 -16.5q-4 -32 -8 -65t-4 -65q0 -37 8 -75q9 -9 16 -20t14.5 -21t16.5 -17.5t24 -9.5q0 -7 3 -10t5 -8q21 -7 44 -11.5t46 -4.5q16 0 32.5 4t27.5 16q51 2 101.5 24t92.5 48h21q11 15 27 24.5t33 17.5q3 2 8 4t8 4q11 8 22.5 18t23.5 19
q20 15 41 29t40.5 30t37 34.5t29.5 41.5q6 0 9.5 3.5t6 7.5t6 7t10.5 3q0 9 3.5 15.5t8 12t9 10.5t8.5 13v28q16 26 23.5 55t7.5 59z" />
    <glyph glyph-name="P" unicode="P" horiz-adv-x="926" 
d="M997 905q0 -35 -13 -67.5t-19 -66.5q-22 -29 -41 -60t-39 -62t-42 -59.5t-50 -51.5q1 -1 1 -4q0 -6 -5.5 -9.5t-3.5 -8.5q-25 -26 -49 -51t-44 -56q-22 -11 -36 -36q-6 0 -9 -2.5t-8 -4.5q-32 -39 -67 -74t-75 -64q-15 -11 -30 -20t-29 -19q-9 -6 -17.5 -14t-17.5 -15
q-29 -25 -57 -41.5t-66 -22.5q-3 -11 -3 -24v-24q0 -12 -1 -24.5t-7 -23.5v-3q0 -10 5 -19.5t5 -19.5q0 -7 -7 -12h26q0 -14 8.5 -24t8.5 -15q0 -17 -3.5 -37.5t-20.5 -27.5v-6q0 -10 -2 -19.5t-9 -18.5q-6 0 -11.5 -0.5t-10.5 -0.5q-42 0 -75 20q-11 26 -14.5 53.5
t-3.5 55.5q0 55 8 109t13 108l15 29q2 28 7 56.5t10 56.5t8.5 56t2.5 56q8 17 11.5 36t3.5 37q0 10 -1 20t-6 19q6 4 8 10t6 11q3 39 5 77.5t2 76.5q0 21 -1 41.5t-3 41.5q-1 8 -3.5 19t-2.5 17q0 8 1 16.5t1 17.5q0 10 -2 19.5t-7 17.5q-48 -14 -86 -37.5t-77 -52.5
q-16 -11 -35 -26t-36 -23q-3 -2 -7.5 -2.5t-7.5 -0.5q-11 0 -20 1.5t-18 1.5q-14 14 -33 22q-3 12 -3 26t2.5 27t7.5 26q12 4 25.5 9t26 11.5t22.5 15t16 21.5q6 -3 11 -3t9 1t9 2q18 11 36.5 23t38.5 20q6 2 7 5t0 9q23 7 48 16.5t42 26.5h18q15 11 32 18t34.5 13.5
t34.5 14t32 19.5q6 2 10 2q5 0 11 -2q10 5 17 12l16 16q16 0 29 3t25 8t23.5 11.5t25.5 13.5q6 -2 9 -4.5t10 -2.5q10 7 21.5 10.5t23.5 5.5t23.5 5t20.5 11q32 0 64.5 1.5t64.5 1.5q46 0 93.5 -7t85.5 -35q15 -36 43 -61q2 -11 4.5 -20.5t6.5 -18.5q-7 -15 -7 -33
t3.5 -35.5t3.5 -34.5zM904 929q-5 9 -6.5 20.5t-0.5 22.5q-13 10 -20 26t-20 24q-9 5 -25.5 6t-27.5 4q-13 4 -17.5 8t-18.5 4q-12 0 -24 -2.5t-24 -2.5q-10 0 -19 4t-19 4q-11 0 -20.5 -7t-22.5 -4q-6 -5 -6.5 -8t-1.5 -4.5t-5 -1.5h-14q-21 0 -42.5 -6t-38.5 -20
q-3 1 -5.5 1.5t-5.5 0.5q-17 0 -32.5 -9.5t-34.5 -9.5q-12 -12 -29 -19t-34.5 -13.5t-32.5 -15t-23 -24.5q-1 -8 5 -10t6 -10q0 -7 -2.5 -17t-2.5 -20q0 -23 5 -45t10 -45q-5 -3 -7 -9t-7 -9q14 -42 14 -86q0 -35 -7.5 -68.5t-10.5 -68.5v-1q0 -6 4 -8t4 -7q0 -3 -1 -5
q-11 -68 -21.5 -136t-17.5 -137h8q26 0 46.5 15.5t34.5 34.5h16q72 63 138.5 130t126.5 144q8 0 11 4t10 6q21 29 44 57.5t50 54.5q1 10 5.5 18t9.5 15t9 15t4 19q5 2 11 4.5t11 7.5q2 10 7 18t5 18q0 4 -2 10q16 7 25 23t14 35.5t7.5 39.5t7.5 35z" />
    <glyph glyph-name="Q" unicode="Q" horiz-adv-x="1506" 
d="M1496 -226q-19 -10 -37.5 -18t-38.5 -15q-15 11 -32.5 10t-34.5 4q-8 2 -14.5 5.5t-12.5 6.5q-32 14 -65 29.5t-59 41.5q-18 5 -35.5 15t-28.5 25h-19q-9 13 -22 21.5t-26.5 17t-26 17.5t-21.5 23q-2 -1 -5 -1q-5 0 -8.5 2t-8.5 2q-6 10 -15 17.5t-13 18.5q-6 -3 -12 -3
q-12 0 -20 8.5t-18 12.5q-11 -4 -22 -5t-21 -6q-8 -3 -12 -8.5t-10 -8.5q-4 -2 -9 -1.5t-9 -2.5q-2 -1 -3.5 -6t-3.5 -5q-3 0 -4.5 1.5t-6.5 1.5q-3 0 -7.5 -4t-11 -8.5t-15.5 -8.5t-20 -3q-35 -27 -76 -36q-20 -17 -46 -27t-43 -30h-3q-13 0 -22 -4t-18.5 -9t-20 -9
t-26.5 -4q-4 0 -10 -6t-11 -8q-16 0 -35 -3t-30 -16q-8 2 -12 2q-16 0 -30.5 -5t-30.5 -5q-11 0 -23 5q-14 -3 -29 -11q-24 2 -46.5 5.5t-46.5 1.5q-21 9 -45.5 16t-48.5 15.5t-45.5 20.5t-36.5 31q-11 14 -16 33t-8.5 39t-7 40.5t-11.5 38.5q2 18 7 35.5t3 35.5
q11 30 23.5 59t20.5 60q24 24 39.5 54.5t32.5 60.5q14 12 24.5 24.5t14.5 32.5q6 1 8.5 5.5t5.5 9t6.5 7.5t11.5 3q11 24 24.5 48t36.5 38q6 16 15.5 29.5t21 25.5t22 24.5t17.5 28.5q26 21 47.5 48t48.5 48q3 1 3.5 5.5t0.5 6.5q2 2 4 2t2.5 -0.5t2.5 -0.5q3 0 5 2
q0 9 4 14.5t8.5 11t8 11t4.5 13.5q25 18 46 39.5t42.5 43t45 41t52.5 31.5v7q0 3 1 7t3 7q36 2 58 29q18 3 36.5 10.5t31.5 21.5q16 0 31.5 5t30.5 10.5t30 10t32 4.5q4 0 7.5 -1t8.5 -1t9.5 4t12.5 4q18 0 36 -8.5t46 -6.5q1 -20 9.5 -32t22 -18.5t29.5 -10t32 -7.5
q1 -23 19.5 -30.5t38.5 -8.5q10 -20 32 -20q4 0 8.5 0.5t9.5 1.5q-3 -5 -3 -8q0 -7 7.5 -10.5t13.5 -3.5l3 1q1 1 2 1v-4q0 -6 0.5 -7.5t4.5 -4.5q9 -7 19 -10.5t20 -7.5q9 -10 15.5 -19t20.5 -10q11 -23 27.5 -42t34.5 -37v-4q0 -18 9 -25.5t19 -20.5q2 -14 8.5 -26
t20.5 -20q-1 -5 -1 -9v-8q0 -26 4 -51t4 -51q0 -24 -5.5 -45t-13.5 -41.5t-17 -40.5t-17 -42q-7 -2 -11 -7l-8 -9q-4 -4 -9 -7.5t-12 -4.5q-2 -6 -5.5 -10t-1.5 -12q-29 -20 -54 -43t-51 -46q-26 -11 -49.5 -25.5t-46.5 -30.5l-46 -31q-23 -15 -47 -28q0 -7 -2.5 -10
t-4.5 -8q13 -12 24.5 -24.5t24 -22.5t27 -17.5t34.5 -10.5q9 -18 23.5 -29t31 -20.5t32.5 -19.5t28 -24l2 -1q4 0 6 2.5t6 2.5q1 0 2 -0.5t2 -0.5q19 -21 40.5 -34.5t48.5 -18.5q4 -10 10 -15t12.5 -7.5t14 -4.5t15.5 -6q8 1 11.5 5.5t9.5 8.5q15 -15 25 -32.5t14 -38.5z
M1381 548q0 14 -3 27t-1 27q-5 4 -7 11l-4 15q-2 8 -4.5 14.5t-8.5 9.5q1 3 1 10q0 9 -4.5 16t-10 14.5t-9.5 15t-3 16.5q-21 24 -42.5 47.5t-50.5 38.5q-2 5 -3 9t-4 9h-22q-5 9 -15 13.5t-21 8t-20.5 8t-14.5 13.5h-9q-28 0 -53.5 9.5t-52.5 15.5q-5 -5 -12 -7.5t-13 -6.5
q-12 11 -28 15t-31 4q-30 0 -55 -12q-5 2 -5 5t-5 3q-1 -1 -2 -1q-16 -4 -30 -12t-16 -27q6 -26 23 -45.5t27 -44.5q13 -4 20.5 -13t12.5 -20.5t8 -24.5t6 -24q-7 1 -6.5 -4.5t-4.5 -6.5q-31 12 -58.5 28.5t-55.5 32.5q-3 10 -9.5 16t-14 11.5t-13 12t-6.5 18.5h-23
q-2 14 -11 22t-21 16q-50 -38 -98.5 -78.5t-84.5 -93.5h-4q-7 0 -13 -3q0 -9 -6.5 -12.5t-5.5 -12.5q-17 -6 -27.5 -18.5t-19.5 -26t-19.5 -26t-26.5 -18.5q-8 -18 -20 -33t-24.5 -29t-24 -29.5t-17.5 -34.5q-1 0 -2 0.5t-2 0.5q-5 0 -7 -3t-6 -5q-11 -24 -25.5 -44.5
t-30 -41t-29.5 -41.5t-23 -45q-20 -22 -33 -45.5t-17 -52.5q-8 -7 -11.5 -19.5t-6.5 -23.5q-11 0 -15 -3q3 -18 5 -38.5t6 -40.5t11.5 -38.5t20.5 -32.5q17 -6 35 -12.5t30 -20.5h8q11 0 21 -3t18 -11q5 -1 10 -1h11q25 0 49.5 3.5t49.5 3.5q6 0 11.5 -0.5t11.5 -1.5
q6 2 14.5 7t14.5 7q12 2 24.5 3.5t25.5 4.5q23 6 45 16t44 19h19q32 14 65 27t66 27t64 30.5t60 37.5q-13 5 -21 12l-15 15q-7 8 -16 14t-24 9q-12 22 -35.5 38t-47 31.5t-41 35t-17.5 48.5q0 11 2.5 20.5t5.5 20.5q11 2 18 10t18 11q8 -7 22 -6t25 -1q14 -18 31 -32.5
t35 -28t35 -27.5t32 -31q15 -2 27.5 -9.5t18.5 -22.5h4q7 0 9 -4.5t12 -2.5q-1 -2 -1 -4q0 -7 5 -9.5t7 -7.5h4q14 0 20.5 -8t18.5 -11q25 14 48 30.5t52 24.5q4 6 8.5 10.5t9.5 10.5h4q8 -1 12 4t9 10q19 5 33 15.5t27 22t27.5 21t34.5 13.5q4 6 10 13.5t13 14.5t15 11
t16 4q11 20 24 37.5t25 35.5t22 37.5t15 43.5q-1 4 -1.5 7t-0.5 6q0 8 2 17.5t7 16.5v3zM1129 944q0 -1 -1 -2l-2 4q0 4 2 4q1 -2 1 -6z" />
    <glyph glyph-name="R" unicode="R" horiz-adv-x="880" 
d="M1207 -41q-2 -20 -14 -31.5t-31 -11.5q-10 0 -19 3q-19 -15 -45 -23t-49 -16q-28 1 -55 5t-56 2q-10 7 -21 9t-22.5 2.5t-22 3.5t-20.5 14h-50q-7 0 -20.5 6.5t-30 13.5t-35 13t-34.5 6h-6q-11 9 -25.5 13.5t-29.5 8t-29 7.5t-24 11t-23 14.5t-27 6.5q-19 11 -39.5 19
t-41.5 15l-41 15q-20 8 -40 19q-3 -1 -7 0t-7 1q-6 0 -7 -4q-7 7 -15.5 12t-16.5 12q-4 -1 -7.5 -1.5t-8.5 -0.5q-9 0 -17.5 2t-16.5 5q-9 -20 -12 -45t-4.5 -51.5t-3.5 -53t-9 -48.5q2 -8 2 -16v-17q0 -17 5 -27q-2 -9 -3.5 -17t-3.5 -16q1 -11 1.5 -20.5t0.5 -20.5v-17
q0 -9 -2 -18q-10 -6 -20 -11.5t-20 -13.5q-7 13 -24 15q-4 -5 -5.5 -13.5t-9.5 -8.5q-14 11 -23 18t-20 21q-1 2 -1 5q0 5 2 9t2 8q0 12 -3 21q-2 13 -3 25.5t-1 24.5q0 17 2.5 33t9.5 33q11 29 15.5 61t6.5 64.5t2.5 65.5t3.5 63q-7 16 -16.5 25.5t-9.5 30.5q0 19 12 29.5
t21 25.5q-2 6 3 8l12 105q1 11 3.5 24t3.5 24q2 23 2 45t2 44q5 49 9.5 97t4.5 96q0 23 -1.5 46t-6.5 46q-17 -5 -37.5 -10.5t-34.5 -18.5h-8q-26 0 -48.5 -10t-45.5 -19q-10 -5 -20 -6.5t-21 -4.5q-5 -1 -11 -6t-11 -7l-17 -4q-7 -2 -6 -9t-5 -9q-5 -5 -14 -4.5t-14 0.5h-4
q-25 -18 -48.5 -30.5t-55.5 -16.5l-22 -14q-11 -7 -25 -7q-11 0 -18 4q-8 12 -12.5 27t-15.5 26q5 5 6.5 13.5t3.5 15.5q30 13 60.5 25t58.5 29q3 -1 9 -1q10 0 18 3t16 7t16 7t19 2q34 19 72 31t72 33q5 0 8.5 -2t7.5 -2t5 1q6 8 16 11.5t20.5 6t20 7t12.5 14.5q5 -4 15 -4
q17 0 31.5 7t31.5 7q4 0 7.5 -1.5t7.5 -1.5q8 0 8.5 5t5.5 9q61 11 121.5 20t122.5 9q9 6 20 6t20 -6q17 2 34 3t34 1q39 0 80 -5t81.5 -15.5t77.5 -28t69 -41.5q3 -9 8 -18t13 -14q0 -2 -0.5 -3t-0.5 -3q0 -11 6.5 -21t6.5 -24t-4.5 -28t-3.5 -28q-11 -16 -18.5 -29
t-9.5 -33q-18 -18 -32 -39.5t-28.5 -42t-32.5 -37.5t-43 -27q-1 -10 -8 -22h-21q-3 -8 -10 -12l-14 -8q-7 -4 -11.5 -10t-4.5 -17q-2 1 -5 1q-10 0 -23.5 -10t-21.5 -16q-17 -12 -34.5 -22t-30.5 -28q-40 -17 -76 -39.5t-78 -35.5q-16 -17 -37.5 -26.5t-41.5 -20.5v-3
q0 -8 6 -15.5t14 -13t17.5 -7.5t16.5 0q20 -18 46 -29t54 -20t55 -19t50 -25h24q23 -20 54.5 -30t60.5 -18q12 -11 30.5 -16.5t35.5 -5.5h6q4 0 7 1v-2q0 -5 3 -6.5t6.5 -2t7 -2t5.5 -4.5h10q21 0 40 -8.5t40 -8.5q9 0 14 2q6 -2 9 -8t8 -10q7 1 13 1.5t12 0.5q22 0 41 -5
t39 -15q32 14 63 23t66 9v-2q0 -12 6.5 -22.5t11.5 -21.5zM824 757q0 12 -4.5 19t-11.5 12.5t-14.5 10.5t-13.5 13q-26 8 -51 18t-51 17q-13 3 -26 5.5t-26 2.5h-22q-6 1 -12.5 2.5t-12.5 2.5q-14 2 -27.5 3t-27.5 1q-26 0 -52 -2l-52 -4q-11 -1 -23 -1t-22 -2
q-5 -1 -14 -4.5t-19 -7t-19.5 -7.5t-16.5 -6q1 -7 1 -14v-13q0 -15 -1 -30t-4 -30q-1 -6 -3 -12t-3 -12q-2 -9 -2 -20v-19q-2 -23 -3 -45t-3 -45q-6 -66 -12.5 -131t-8.5 -131q33 7 63 21t59 30.5t58 32.5t61 27q8 11 19.5 18t19.5 18q10 0 15 4.5t13 6.5q48 42 98 79t96 79
q4 14 13.5 27.5t18.5 27.5t16 28t7 30z" />
    <glyph glyph-name="S" unicode="S" horiz-adv-x="862" 
d="M821 37q0 -10 -1 -15q-5 -2 -8 -5.5t-10 -2.5q-2 -15 -10 -25t-16.5 -18.5t-16.5 -18t-10 -24.5q-15 -8 -29.5 -21.5t-25.5 -18.5q-8 -4 -17 -6.5t-18 -6.5q-29 -13 -59.5 -27t-63.5 -14h-7q-4 -4 -10 -5.5t-12 -2.5t-12 -3t-9 -6q-11 4 -24 4h-7q-17 -4 -32 -6t-32 -2
q-30 0 -60 4t-60 7q-19 15 -31 37.5t-12 47.5q0 19 8 35.5t21 29.5h3q9 0 18.5 4t18.5 4q10 0 16.5 -8t10 -19t4.5 -22.5t1 -18.5q11 -5 23.5 -6t25.5 -1t29 1.5t32.5 5t32 8.5t26.5 13q55 5 97 25t89 47q2 11 8.5 17.5t6.5 19.5q0 2 -0.5 4.5t-0.5 4.5q-20 25 -41.5 44
t-55.5 25q-4 9 -13 13.5t-19 8.5t-19 8.5t-13 15.5q-27 5 -55.5 12.5t-48.5 27.5q-16 1 -30.5 6.5t-28.5 11t-29 10t-31 4.5q-4 7 -11 11t-15.5 7t-16 6.5t-11.5 10.5q-4 -1 -6 -4t-7 -3h-4q-2 6 -8 8.5t-7 10.5q-18 1 -32.5 7t-27 13.5t-25.5 14.5t-29 11q-10 8 -18.5 17.5
t-21.5 9.5q-3 0 -11 -2q-2 18 -15 25.5t-28 13.5q-10 26 -27 46t-37 37q2 6 2 9q0 10 -5 17.5t-11 12.5q-14 45 -14 88q0 60 26.5 111.5t83.5 77.5q1 8 5.5 14t5.5 14q9 0 14 4t9.5 8.5t9.5 8.5t13 5q38 33 81 53.5t88 42.5q9 4 15 15h6q10 0 15.5 4.5t16.5 2.5q4 6 10.5 8
t13 3.5t12.5 4.5t8 9h7q17 0 33 5.5t32 12.5h7q20 0 37.5 7.5t37.5 10.5q8 2 16 1t16 -1q5 0 12 1t10 6h2q6 0 7 -4t6 -4q7 0 14 2t14 2q30 0 59.5 -6t58.5 -11q2 -12 10.5 -17t18.5 -9v-4q0 -8 4 -13q-4 -14 -14 -21t-22 -12q5 -4 6 -11t1 -13v-12l-5 1q-16 0 -16 -15
q-13 8 -28.5 10t-30.5 2q-20 0 -42 -1.5t-43 0.5q-8 -10 -20 -14.5t-24 -4.5q-13 0 -25 5.5t-17 16.5q-5 2 -9 2h-9q-16 0 -31.5 -3.5t-31.5 -8t-31.5 -9t-31.5 -5.5q-6 -8 -16 -11t-16 -11q-21 -4 -38 -13.5t-33 -20.5l-31 -21q-15 -10 -34 -17q-14 -15 -26 -24t-31 -16
q-12 -4 -13.5 -12t-8.5 -16q-6 -7 -14.5 -10.5t-14.5 -11.5q-5 -7 -7.5 -16.5t-5.5 -18.5t-7 -17.5t-12 -14.5q0 -4 -0.5 -8t-0.5 -7q0 -14 3.5 -28.5t4.5 -28.5q20 -35 47 -63.5t58 -52.5t64.5 -45t66.5 -41q12 1 22 -2.5t21 -4.5q12 -9 28 -14l32 -10q16 -5 31 -11.5
t25 -17.5q5 -1 9 -2.5t9 -1.5q6 0 7 4q45 -17 88 -37.5t91 -31.5q19 -16 42 -28t46 -24.5t44 -27t37 -34.5q2 -19 8.5 -36.5t6.5 -37.5z" />
    <glyph glyph-name="T" unicode="T" horiz-adv-x="658" 
d="M976 953q-8 -5 -17 -6t-18.5 -2.5t-17.5 -4.5t-12 -11q-10 10 -22 17t-24 15q-10 -3 -20 -8t-20 -5q-7 0 -14 5q-8 -6 -18.5 -9.5t-22 -6.5t-21 -8t-13.5 -15q-2 5 -9.5 3t-8.5 5q-32 -11 -65 -19t-66 -17t-65 -20t-62 -27q-1 -1 -1 -3q0 -10 3 -19t5 -17
q-18 -61 -24 -124t-16 -124v-4q0 -5 4 -7.5t4 -8.5l-1 -2q-5 -3 -7 -8.5t-2 -11.5q0 -4 2 -12q-17 -57 -22.5 -116t-13.5 -118l-9 -66q-2 -6 -3.5 -11.5t-1.5 -11.5q0 -32 4.5 -62.5t2.5 -62.5q9 -14 9 -27q0 -5 -0.5 -10t-1.5 -10q13 -13 30.5 -18.5t31.5 -17.5v-4
q0 -10 -3 -19.5t-5 -19.5q-2 -8 -4.5 -23t-6.5 -20q-5 -7 -14.5 -12.5t-18.5 -5.5q-3 0 -8.5 3t-8.5 5q-5 0 -13 -5t-16 -5q-4 0 -7 0.5t-7 2.5q-4 10 -11.5 17.5t-17.5 14.5q1 14 -5 21t-12 18q-2 14 -3.5 32t-15.5 26q5 7 5 19q0 5 -1.5 11t-6.5 9v2q-1 5 3.5 7.5t4.5 7.5
v4q-7 32 -7 67q0 33 2 65.5t0 65.5q6 5 9.5 16t5.5 24t2.5 25.5t1.5 20.5q5 57 16 112.5t13 113.5q5 8 6 21t1 27.5t2 28.5t8 24q0 28 5 56.5t5 57.5q0 14 -3 29q-10 4 -18 4q-11 0 -22.5 -4.5t-16.5 -13.5q-22 -1 -43 -7t-42 -6h-10q-4 0 -9 1q-7 -3 -14.5 -5t-6.5 -12
q-31 -3 -60.5 -13t-58.5 -21.5t-58.5 -21.5t-60.5 -13q-11 -5 -14 -21q-22 2 -37 11t-35 17q-6 21 -6 40q0 25 10 48t32 34q5 -1 9 -1.5t9 -0.5q16 0 32 6t33 6q5 0 11 -3q7 4 17.5 6.5t20 5t17.5 7.5t10 14q5 -4 11 -5t12 -1q13 0 27 5t22 16q7 -8 20 -8q14 0 27.5 7.5
t26.5 7.5q10 0 15 -7q11 9 26 14t30.5 9t29 9t21.5 14q5 -1 16 -1q17 0 32.5 4.5t31.5 8.5l21 2q8 1 14.5 5t13.5 7t14.5 5t18.5 1q24 13 51 20t55 12.5t55 13t51 22.5h3q20 0 39.5 7t36.5 19q3 -1 6 -1h7q28 0 54.5 8t55.5 8q17 0 27 -4.5t18 -11t17 -12.5t23 -9
q9 -17 9 -36.5t1 -39.5z" />
    <glyph glyph-name="U" unicode="U" horiz-adv-x="889" 
d="M848 -119q0 -12 -7 -20.5t-17 -14t-21 -10t-19 -9.5q-23 5 -48 8.5t-45 13.5q-41 45 -57.5 103.5t-21.5 116.5q-2 17 -2 33.5t-2 33.5q-2 15 -18 18q12 2 17 12.5t6 24t0.5 27t1.5 22.5q-8 -3 -14 -13.5t-11 -23.5t-9.5 -25.5t-8.5 -19.5q-42 -72 -97.5 -131t-114.5 -117
q-17 -6 -32 -15.5t-28 -20.5q-38 -11 -72 -11q-31 0 -61 8.5t-54 28.5l-37 84q-3 8 -7 16.5t-6 16.5q-2 9 -1.5 19.5t0.5 18.5q0 35 2.5 70.5t7.5 70.5q2 14 6 29t6 29v11q0 5 -1 12.5t-6 9.5q24 58 24 121q0 10 -0.5 19.5t-1.5 19.5q7 7 9 16.5t2 20t0.5 20.5t5.5 19
q-1 11 -1.5 21.5t-0.5 21.5q0 67 10.5 132.5t10.5 132.5v42q0 14 0.5 29t4 29t10.5 26.5t20 21.5q2 0 3.5 0.5t3.5 0.5q9 0 14 -4.5t15 -3.5q18 -26 28.5 -55t10.5 -61q0 -24 -7 -47t-7 -48q0 -10 1 -20t1 -20t-2.5 -19.5t-9.5 -16.5q2 -20 3 -40.5t1 -40.5q0 -57 -7 -114
t-16 -114t-16 -114t-7 -115v-29q0 -14 2 -29q-6 -14 -6 -30q0 -22 10 -43t24 -38q5 -1 9.5 -1.5t9.5 -0.5q26 0 46.5 11t39 27t36.5 33t39 28q32 41 60 82.5t54 86.5q2 24 12.5 48.5t22 48.5t21 47t9.5 44q0 11 -7 15q10 26 15 54t8.5 56t7.5 55.5t12 54.5q0 6 -0.5 12
t-0.5 12q0 46 9 90.5t9 90.5q0 11 -1.5 20.5t-1.5 18.5q0 8 5.5 10t5.5 11q0 8 -1.5 17t-1.5 19q0 31 6 61t6 61v12q0 7 -2 13q7 11 19 14.5t23 3.5q18 0 30 -4q19 -51 32 -104.5t21 -108.5q2 -13 5.5 -27.5t3.5 -28.5q0 -3 -1.5 -7t-2.5 -8q-1 -8 -1.5 -16t-0.5 -16
q0 -24 3 -48t3 -49q0 -28 -7.5 -53.5t-11.5 -53.5q-4 -29 -3 -57t-4 -57q-2 -12 -6 -23.5t-4 -24.5q0 -9 1.5 -18t1.5 -19q0 -15 -7 -23q2 -8 3 -14.5t4 -14.5q-5 -6 -7 -13t-2 -15q0 -10 1 -18.5t1 -17.5q0 -21 -6.5 -40t-8.5 -39q-1 -14 -0.5 -27.5t0.5 -27.5
q0 -15 -1.5 -29t-8.5 -28q2 -6 5 -12t9 -9q0 -31 8.5 -62.5t23.5 -59.5q3 -6 9 -9t11 -6.5t8 -8.5t1 -15q2 -1 6 -1q8 0 13.5 4t13.5 4h7q9 -9 18.5 -21t9.5 -26z" />
    <glyph glyph-name="V" unicode="V" horiz-adv-x="777" 
d="M787 1004q-14 -20 -29.5 -37.5t-38.5 -27.5q-12 -69 -19.5 -139t-16 -140t-19 -139.5t-28.5 -137.5l1 -12q2 -20 -5 -38t-6 -39q-14 -35 -24 -77.5t-12 -80.5q-10 -17 -16.5 -37t-13 -40.5t-14.5 -39t-21 -33.5q-3 -23 -11.5 -43.5t-19 -40.5t-20 -39.5t-13.5 -41.5
q-17 -26 -34 -50.5t-31 -51.5q-13 -6 -22.5 -13.5t-18.5 -14t-20.5 -11.5t-27.5 -5q-4 0 -7.5 0.5t-7.5 0.5q-14 11 -28 21.5t-30 18.5q0 6 -1.5 10t-2.5 8t-1 8t2 10q-9 6 -20.5 21.5t-11.5 26.5q0 10 7 10q-2 10 -6.5 19.5t-4.5 19.5q0 7 4 15q-11 26 -20 53.5t-12 56.5
q-10 13 -15.5 30.5t-8.5 36.5t-5 37.5t-5 34.5q-1 6 -5 19.5t-4 18.5q0 6 2.5 9t4.5 8q-12 48 -19.5 97t-14 98t-15 97.5t-23.5 95.5v9q0 32 -25 51q5 15 5 25q0 13 -3.5 25t-7.5 24t-5.5 24t1.5 24q-11 12 -18 26t-18 24l-1 6q0 5 2.5 9t2.5 9q0 7 -3.5 12t-8 9t-8 8
t-3.5 9q0 12 8 19t18 12.5t19.5 11.5t12.5 17q8 -2 16 -2.5t16 -4.5q1 1 1 3q0 3 -9.5 5.5t-12.5 6.5q8 2 12 2q20 0 38.5 -10t35.5 -21q2 -9 1 -18.5t6 -17.5q-1 -5 -0.5 -9t0.5 -8q0 -5 -1.5 -8.5t-5.5 -3.5q7 -12 9.5 -29t5 -35t6.5 -35t15 -30q-2 -6 -2.5 -12t-0.5 -13
q0 -32 8 -63t8 -63q0 -19 -6 -35q0 -9 6 -14.5t8 -14.5q-5 -12 -5 -23q0 -23 9 -43.5t9 -42.5q0 -7 -2 -13t-4 -11q9 -9 9.5 -23t8.5 -23q-1 -5 -1.5 -10t-5.5 -8q5 -7 5.5 -18.5t8.5 -13.5q-2 -5 -3 -9t-1 -9q0 -11 3 -20l6 -18q3 -9 4.5 -19t-2.5 -22q4 -6 6.5 -14
t4.5 -16.5t6 -15t12 -8.5q1 -6 -4.5 -6t-5.5 -5q0 -8 6 -19.5t11 -16.5q-1 -4 -1 -8v-9q0 -14 4 -28.5t7.5 -29t5.5 -28.5t-2 -26q8 -14 14 -30t19 -27q0 -17 7 -32.5t18 -29.5q10 0 15 6.5t8 14.5t7 15t13 8q1 10 5.5 16.5t9 13.5t8 15t2.5 20l11 3q5 27 15.5 48.5
t23.5 44.5v5q0 10 3 17t1 18q7 2 10 8t5 12.5t4.5 13t8.5 9.5v8q-1 9 1.5 17.5t-1.5 17.5q8 3 12 10t6.5 15t3 17t0.5 16q7 9 10 21.5t5 25.5t5.5 25t11.5 21q-2 5 -2 9v9q0 19 6 34.5t11 33.5q13 45 18.5 92.5t16.5 93.5q1 5 4 16t6 22.5t5.5 21t2.5 12.5q0 8 -3.5 11
t-3.5 10q6 9 8 23t3 29.5t0.5 30t-0.5 25.5t5 28t7 30q5 34 6.5 67.5t3.5 67.5q7 4 10 10.5t3 13.5q0 11 -2.5 21t-2.5 21q0 5 1 10.5t5 9.5q-1 7 -1.5 14t-5.5 12q5 13 5 26q0 12 -2.5 24t-2.5 25q0 25 21 36h14q10 0 20 1t21 6q13 -14 27 -30.5t24 -35.5t15 -39t1 -42
q4 -8 5 -16t6 -16zM583 459q-4 1 -5.5 3.5t-6.5 3.5v-11h8z" />
    <glyph glyph-name="W" unicode="W" horiz-adv-x="1192" 
d="M1151 871q-2 -5 -8 -18t-6 -17q0 -8 -0.5 -20.5t7.5 -15.5q-11 -23 -13.5 -46.5t-2.5 -48t-1 -49t-8 -47.5q4 -6 2.5 -14.5t4.5 -13.5q-5 -8 -6 -15.5t-1 -15.5q0 -16 3 -31q-11 -16 -10.5 -35.5t0.5 -39.5q0 -17 -4.5 -33t-4.5 -33q0 -5 1 -9t1 -9t-3.5 -6.5t-3.5 -9.5
q0 -37 -5 -71.5t-12.5 -68t-16.5 -67.5t-16 -69q-11 -12 -16.5 -27t-19.5 -24q-13 -33 -32.5 -60t-43 -51t-48.5 -46.5t-49 -46.5q-10 0 -19.5 -0.5t-19.5 -0.5q-22 0 -44 2t-42 7q-4 14 -15.5 18.5t-20.5 13.5q-10 9 -15 20t-21 15q-5 15 -15.5 35t-20.5 41t-17.5 40.5
t-7.5 33.5q0 5 1.5 9.5t2.5 9.5q-6 7 -8 18t-2.5 22.5t-2.5 22t-9 16.5q-12 -8 -19 -20t-12.5 -26t-10.5 -28t-12 -26q-14 -11 -24.5 -25t-21 -28.5t-22.5 -27t-28 -20.5q-4 -18 -14.5 -30.5t-22.5 -23t-23 -22t-16 -28.5q-17 -8 -38 -23.5t-42.5 -31.5t-43 -27.5
t-37.5 -11.5q-13 0 -24.5 2.5t-23.5 5.5t-24 5.5t-25 1.5q-19 20 -29 45.5t-25 47.5q-5 30 -10 60.5t-5 60.5q0 17 4 31.5t4 29.5q0 5 -1.5 9.5t-2.5 9.5q7 14 11 29.5t6.5 31.5t5.5 31.5t9 29.5q2 12 -7 18q7 7 9 15t2.5 16t0.5 17t2 17q1 4 5 12l9 17q5 9 8.5 16.5
t3.5 11.5q0 7 -4 15q4 20 13.5 39t14.5 39t6 35.5t9 36.5q1 2 1 5q0 4 -3 5t-5 4q12 23 18.5 49.5t11 54.5t8.5 55.5t12 52.5q-3 20 -5 41.5t-2 41.5q0 23 4.5 47t20.5 42q8 0 17.5 1t17.5 1q12 0 26 -6q7 -32 18 -63t11 -66q0 -17 -4 -34l-7 -33q-3 -16 -5 -32.5t1 -32.5
q-11 -15 -12.5 -34.5t-1.5 -36.5q-10 -14 -15 -28t-7.5 -28.5t-4.5 -29.5t-5 -30q-2 -5 -6.5 -12t-4.5 -10q0 -7 4 -14q-2 -3 -4 -4.5t-3 -5.5q-3 -11 -4.5 -23.5t-4.5 -23.5q-5 -25 -13.5 -49t-17.5 -48q0 -20 -1.5 -32t-4 -21.5t-6 -20t-6.5 -26.5q-3 -15 -5.5 -37
t-5 -45.5t-3.5 -46t-1 -38.5q0 -29 5.5 -56.5t19.5 -52.5h17q6 0 13 -0.5t13 -3.5q7 2 7 6v8q0 3 5 8l7 -1q10 0 18.5 3t17.5 8q19 26 44.5 44t45.5 42q5 8 3 19q12 2 18.5 9t12.5 15t12.5 15.5t17.5 10.5q5 9 9 19.5t8.5 20.5t11 18.5t17.5 13.5q17 38 29 78.5t36 74.5
q0 13 1 24t-1 23q25 34 32 71t7 78q0 34 22.5 47t53.5 13h10q6 0 11 -1q2 -7 7.5 -10.5t11.5 -7.5v-6q0 -14 -3.5 -25.5t-3.5 -24.5q0 -6 2 -16q10 -29 15.5 -53t5.5 -56q0 -27 -2.5 -54.5t-6.5 -54.5q6 -11 6 -23q0 -8 -1.5 -16.5t-1.5 -16.5q0 -17 5.5 -33.5t12 -32.5
t11.5 -32t4 -32q17 -21 30.5 -43.5t33.5 -39.5q8 -2 13 -2q6 0 10 1.5t7.5 3t7.5 2t12 -0.5q18 13 33 29.5t28.5 33.5t27.5 35t29 34q29 72 47 144t22 150q0 11 5 11t9 7v28q0 32 3.5 64t14.5 63q-3 12 -3 24q0 26 4.5 50.5t4.5 49.5q0 13 -2.5 26.5t-10.5 24.5l-1 6
q0 6 4.5 10t6.5 9q-5 13 -3.5 27t1.5 28q0 8 -2 17t-10 14q9 10 13 26t5.5 34t1.5 35.5t2 29.5q9 10 20.5 17.5t25.5 7.5q18 0 26 -12.5t12 -30t6.5 -35.5t9.5 -29z" />
    <glyph glyph-name="X" unicode="X" horiz-adv-x="753" 
d="M824 1102q0 -8 -1.5 -15t0.5 -15q-31 -19 -43 -50q-16 -8 -26 -21.5t-18.5 -28t-17.5 -28t-24 -22.5v-22q-8 2 -10.5 -1.5t-7.5 -5.5q-20 -38 -41 -75.5t-52 -67.5q-8 -21 -18 -41t-21 -40t-21 -40t-16 -41q-20 -21 -34 -46.5t-26.5 -51t-27 -50.5t-34.5 -46q1 -9 -3 -15
t-4 -13q0 -23 22.5 -51.5t53.5 -57t62 -52.5t48 -37q26 11 46 22.5t48 13.5q14 -7 22.5 -18.5t8.5 -26.5q0 -23 -14 -43.5t-31 -33.5q-16 -3 -32 -5t-32 -2q-32 0 -63.5 6.5t-62.5 14.5q-17 22 -37.5 38.5t-45.5 26.5q-1 12 -6 20t-12 14.5t-15.5 11.5t-16.5 11
q-10 -3 -18 -8.5t-18 -8.5q-19 -46 -51 -86q2 -18 -6.5 -27.5t-21.5 -19.5q-5 -29 -18.5 -52t-31.5 -45l1 -8q0 -4 -2.5 -7t-1.5 -10q-15 -18 -25 -41.5t-18.5 -48.5t-16 -50t-16.5 -47q4 -9 4 -21q0 -11 -2 -22t-2 -22q0 -9 3 -17.5t11 -14.5q12 11 31 11q11 0 21.5 -3
t19.5 -8q4 -8 4 -14q0 -7 -3.5 -12.5t-8 -11t-9 -10.5t-5.5 -12q-23 -2 -45.5 -7t-43.5 -15q-12 2 -21.5 8.5t-21.5 9.5q-13 17 -20.5 37t-19.5 38q0 23 6 45.5t12.5 44.5t11.5 44.5t3 45.5q10 5 16 15.5t9.5 23t6.5 25t7 22.5q11 7 16.5 17.5t16.5 17.5q0 2 -0.5 3.5
t-0.5 3.5q-1 2 -2 2.5t-1 2.5t-0.5 3.5t0.5 3.5l10 13q14 18 21 33.5t16 35.5q8 19 20 38t23 38q26 47 50.5 93.5t52.5 92.5q-8 6 -13 14.5t-9.5 17.5t-9.5 17.5t-14 14.5q-21 55 -47.5 107.5t-51.5 104.5q-9 19 -16.5 38.5t-17.5 36.5q-3 5 -7 4t-7 3q-8 23 -14 41l-15 45
q4 20 18 29t33 9q15 0 32 -5q9 -10 17 -21.5t19 -21.5v-26q29 -59 54.5 -118t55.5 -118q11 -2 18 -9t13 -15t12.5 -15t18.5 -8q4 2 12 13.5t16.5 25t15 26.5t6.5 18v7q66 91 111 193q10 5 16 13.5t11.5 18t11.5 18.5t15 15q5 21 16 39t23 36t23 36.5t17 39.5q11 4 17.5 13
t11.5 19t11 19t17 13q7 33 27 54t52 32l4 11q4 -2 14 -3.5t19.5 -3t17 -4.5t7.5 -9z" />
    <glyph glyph-name="Y" unicode="Y" horiz-adv-x="755" 
d="M693 847q0 -72 -13.5 -142.5t-22.5 -141.5q-5 -7 -10.5 -11.5t-10.5 -9.5v-10q0 -14 -4 -28l-7 -27q-3 -13 -5 -26.5t2 -27.5q-12 -29 -18 -59.5t-10.5 -61.5t-9.5 -62t-14 -61l1 -15q2 -32 -4.5 -64t-6.5 -64q0 -21 1.5 -41t1.5 -40q0 -22 -3 -41q8 -10 12 -23l9 -26
q5 -13 11 -24t18 -17q11 5 20.5 8.5t20.5 3.5q16 0 28 -9q2 -10 1.5 -21t1.5 -22q-10 -10 -22.5 -17t-23.5 -15q0 -2 0.5 -4.5t0.5 -4.5q0 -20 -14.5 -30.5t-31.5 -10.5q-5 0 -14 2t-14 5q-27 18 -47 49t-32.5 67t-19 73.5t-6.5 67.5v22q0 11 2 22q1 8 4 12.5t3 13.5
q0 53 6.5 106t14.5 106.5t15.5 106.5t9.5 107q-11 -3 -17 -13.5t-19 -15.5q-23 -33 -53.5 -58.5t-56.5 -56.5q-14 -6 -27 -13t-24 -18q-34 -3 -57 -26l-9 1q-13 0 -24 -8q-8 0 -15.5 3t-15.5 3q-9 0 -15 -6q-29 7 -49 22.5t-36.5 34t-33 38t-38.5 34.5q-6 23 -11 41.5
t-8.5 36.5t-6 37.5t-2.5 44.5q0 68 6 134.5t14 132.5q16 27 23.5 58.5t14 63.5t15 63t26.5 56h7q11 0 20.5 -1.5t18.5 1.5q14 -25 14 -56q0 -20 -4.5 -40t-10 -39.5t-10.5 -39.5t-6 -40q-6 -9 -8.5 -19t-10.5 -17l1 -14q2 -22 -5.5 -42t-9.5 -42q-1 -11 0.5 -22t1.5 -22
q0 -26 -1.5 -51t-1.5 -51q0 -19 4 -36.5t4 -26.5q0 -7 -3 -13q3 -10 8 -18l10 -15q5 -7 9 -15.5t5 -19.5q40 -37 98 -37q33 0 64.5 19t61 46t57 55.5t53.5 46.5q9 18 23.5 39.5t29.5 44t27 44t16 40.5q2 9 2 19t2 21q5 35 12.5 70t7.5 71q0 7 -0.5 13t-1.5 14q8 10 16 18.5
t13 20.5q13 -2 24 -0.5t23 1.5q15 0 28 -8q11 -53 11 -103z" />
    <glyph glyph-name="Z" unicode="Z" horiz-adv-x="1172" 
d="M1234 87q0 -46 -43 -56q-12 11 -35 12.5t-40 1.5q-8 0 -12 -5t-9 -5q-25 0 -49.5 2t-49.5 2q-30 0 -61.5 -6t-52.5 -6q-6 0 -9.5 3t-7.5 5q-9 -3 -17 -9t-18 -6q-4 0 -8 3t-7 5q-8 -2 -13 -7t-12 -8q-7 4 -14 4q-8 0 -16.5 -3.5t-16.5 -7.5q-8 -1 -16.5 -0.5t-16.5 0.5
q-10 0 -20 -1t-18 -6q-45 0 -88.5 -9t-85.5 -23l-67 -22q-5 0 -7.5 2t-5.5 2h-5q-12 -10 -30.5 -16t-39.5 -10t-41.5 -8t-35.5 -9q-10 -4 -17.5 -10t-18.5 -9q-5 -1 -10 0t-10 1q-11 0 -27 -6.5t-36.5 -14t-43.5 -14t-47 -6.5q-16 0 -39.5 3t-45.5 11t-37.5 22t-15.5 37
q0 16 6 22.5t6 18.5q0 3 -1.5 6.5t-3.5 5.5q20 22 36 46.5t29 51.5q15 12 28 27.5t26 30.5t27.5 29t32.5 23q5 13 15 26q14 5 24.5 14t20.5 19.5t20.5 19.5t24.5 14q7 14 18 25.5t22 22.5l22 22q11 11 20 24q6 2 8 5.5t10 1.5v14q13 6 22.5 15t18.5 19t19 19.5t22 15.5v18
q10 2 18 8.5t18 9.5q-1 19 9 27.5t24 19.5q9 23 26 40l34 34q13 28 29.5 52.5t28.5 52.5q9 5 16 13t13 16.5t13 16.5t16 14l-1 5q0 7 5 12t5 10q0 2 -2 6h-10q-23 0 -51 -5t-47 -16h-6q-22 0 -43.5 -5.5t-43.5 -11.5t-43.5 -10t-43.5 -2q-13 -6 -27.5 -9.5t-25.5 -12.5
q-24 -3 -54.5 -9.5t-61.5 -13t-60 -12t-50 -5.5q-14 0 -26.5 6t-21.5 16t-14.5 23t-5.5 26q0 15 7 34q7 7 15.5 11.5t13.5 12.5q9 -2 19 -4.5t20 -2.5t18 4q8 1 10.5 -5.5t7.5 -8.5q22 4 43 12t44 8q12 0 24 -3q55 16 110.5 28t108.5 34l13 -1q14 -2 27.5 1.5t27.5 2.5
q15 12 35 17t41 9t41.5 8.5t37.5 15.5h5q19 0 37.5 6t36 13.5t34.5 14t34 6.5q27 0 46 -21q-11 -8 -18 -22q9 -14 9 -29t-4 -30.5t-5 -30.5q-28 -10 -44.5 -31.5t-37.5 -40.5v-17q-13 -8 -21.5 -19.5t-25.5 -13.5q-5 -21 -14.5 -39.5t-31.5 -24.5q-2 -7 -6 -12t-8 -9.5
t-6.5 -10.5t-1.5 -15q-20 -18 -37 -38.5t-33 -41.5t-33 -41t-37 -37q-2 -11 -9 -18t-9 -18q-20 -18 -39.5 -35.5t-38.5 -36.5q-9 -9 -17 -19.5t-16 -19.5q-3 -2 -7 -3t-7 -1q-11 -18 -25 -32.5t-29 -28.5t-29 -28.5t-25 -32.5q-21 -13 -39 -29t-35 -33.5t-34 -35.5t-35 -34
q-2 -11 -7.5 -19.5t-10.5 -17t-9.5 -18t-5.5 -21.5q5 -2 9 -2h10q20 0 38.5 8t35.5 16q16 1 31.5 4.5t25.5 17.5q5 -2 8 -2h7q10 0 19.5 2.5t19 5.5t19 5t21.5 0q15 9 31.5 13.5t34 8.5t33.5 9t30 15q5 -1 13 -1q11 0 23.5 3t23.5 8q13 4 26 11q6 0 8 -2t5 -2t5 1
q13 4 24 8.5t24 8.5q29 7 58 11t58 9q13 2 25.5 6t25.5 7h5q2 0 3.5 -3.5t6.5 -3.5q10 0 22 3t23 5q49 9 104 9q20 0 39.5 -3t39.5 -3q7 0 11.5 3t10.5 4v-5q0 -9 4 -13q8 5 17.5 6t18.5 1q24 0 47.5 -3.5t46.5 -3.5q14 0 28 3q2 -7 9.5 -8.5t12.5 -5.5q10 -22 10 -44z" />
    <glyph glyph-name="bracketleft" unicode="[" horiz-adv-x="573" 
d="M594 -175q0 -16 -5.5 -25t-9.5 -23q-26 -6 -50.5 -20t-50.5 -23q-3 1 -7 1q-11 0 -21.5 -3t-21.5 -1q-26 -15 -58.5 -23.5t-65 -17.5t-61.5 -22.5t-48 -37.5q-12 4 -21 10.5t-18.5 12.5t-19.5 10.5t-23 5.5q-2 42 -8.5 82t-6.5 80q0 27 3 54q-3 7 -6.5 13t-7.5 12
q2 6 5.5 11.5t8.5 9.5q-5 21 -6.5 43.5t-3 44.5t-5 43.5t-13.5 40.5v9q0 21 -3.5 43t-14.5 42q8 49 13 98t5 99q0 20 -0.5 39.5t-2.5 39.5q-1 1 -1 3q0 5 4 4t4 4q0 6 -2 13.5t-2 15.5q0 17 3 34t3 34q0 8 -2 16.5t-7 15.5q7 3 9 10t2 14t-0.5 13t-0.5 14q0 5 1 10.5t6 10.5
q0 3 -2.5 3.5t-5 0.5t-4.5 1t-2 5q0 5 0.5 9.5t0.5 9.5q0 19 -5 37.5t-18 33.5q8 9 8.5 19.5t0.5 21.5v10q0 5 2 10q25 9 51 11t52.5 2.5t52.5 1t52 6.5q9 -3 18 -3.5t18 -3.5q22 6 44 13.5t45 7.5q5 0 9.5 -1t9.5 -1t10 2.5t7 7.5q7 -2 12.5 -4.5t13.5 -2.5h3q11 5 11 14
q3 1 3 -3q6 -4 9 -4q4 0 8.5 3.5t11.5 3.5q2 0 5.5 -1t5.5 -2q16 -8 23 -22.5t7 -30.5q0 -19 -5 -30q-44 -6 -86 -16.5t-86 -12.5q-23 -12 -48.5 -17.5t-52 -9t-52.5 -7t-51 -9.5q2 -11 3.5 -22t1.5 -23q0 -9 -0.5 -18t-1.5 -19q5 -8 13.5 -15t8.5 -17q0 -6 -2 -11t-2 -10
q0 -8 7 -11q-7 -2 -6.5 -9t-4.5 -10q1 -14 1 -29v-30q0 -51 -1 -101.5t-3 -101.5q0 -14 -2.5 -28t-2.5 -28q0 -11 2 -21.5t10 -18.5q-4 -7 -4.5 -16.5t-1 -18.5t-1 -17t-4.5 -12q6 -23 11.5 -40.5t9 -34t6 -34.5t2.5 -42q0 -7 6.5 -27t15 -42.5t15 -41.5t6.5 -22
q0 -13 -4.5 -19t-4.5 -12q0 -4 2 -12q15 -8 37 -8q19 0 38 4t37.5 9.5t36.5 11t37 8.5q17 3 36 2.5t36 5.5q8 2 15.5 8t12.5 13q6 -7 16 -7q8 0 15.5 4t15.5 6q6 -13 8.5 -24.5t13.5 -22.5q0 -2 0.5 -4.5t0.5 -4.5z" />
    <glyph glyph-name="backslash" unicode="\" horiz-adv-x="820" 
d="M805 18q0 -13 -6.5 -22t-6.5 -20q0 -7 3 -11h-4q-8 0 -10.5 -5.5t-7.5 -8.5q-25 14 -54 17q-3 11 -12 15.5t-13 13.5q-30 10 -56.5 26t-51.5 34t-50.5 35.5t-53.5 30.5q-9 12 -17 23t-26 13q-12 19 -27.5 34.5t-32 30.5t-31.5 31t-26 36h-4q-3 0 -6 1l-5 3q-21 29 -44 55
l-46 52q-2 10 -6.5 17.5t-7.5 15.5q-10 6 -16 16.5t-11 21.5t-12 20.5t-19 13.5q-1 26 -19.5 51t-37.5 42q-5 27 -18 52t-22 51q-3 9 -7.5 8t-9.5 4q-7 26 -11.5 52.5t-4.5 54.5v12q0 7 1 13q6 8 12 11t12.5 3t14 -0.5t15.5 0.5q5 -1 7.5 -4.5t5 -7.5t5.5 -7t9 -3q2 0 4 0.5
t4 0.5q1 -8 4 -15.5t3 -15.5q0 -4 -2 -12q11 -16 17 -35l13 -37q7 -18 16 -35t25 -30q10 -31 26 -58.5t34 -54t35.5 -53t30.5 -56.5q11 -8 25 -14q0 -8 3.5 -12.5t7.5 -8.5t7 -9t3 -13q19 -11 33 -26.5t25 -33.5q20 -9 36 -22.5t31 -28.5t31 -29.5t35 -24.5
q4 -15 14.5 -23.5t22.5 -16t23.5 -15.5t18.5 -21q11 -3 21 -9.5t19.5 -13t19.5 -12.5t22 -8q8 -15 20.5 -24.5t26.5 -18t28 -16.5t25 -20z" />
    <glyph glyph-name="bracketright" unicode="]" horiz-adv-x="631" 
d="M559 -264q0 -31 -14 -52h-2q-4 0 -6 2.5t-7 2.5h-2q0 -1 -2 -1q-2 -9 -4 -17t-6 -16q-15 -5 -28 -5q-11 0 -20.5 4t-15.5 12q-8 -2 -14 -6t-8 -12q-9 2 -18 2h-19q-37 0 -72 -7t-69.5 -16.5t-69.5 -19t-71 -13.5q-34 17 -53 40t-19 63v8q10 8 19 17t21 16q22 -2 43 -4.5
t43 -9.5q13 4 22.5 7.5t18.5 6t19.5 3t25.5 0.5q15 8 35.5 10.5t41 4.5t39 6t30.5 15q9 0 17 -2.5t16 -4.5v3q0 8 -3 16t-3 16q0 5 2 8.5t4 7.5q-6 13 -9 29t-3.5 32.5t-0.5 33t-1 31.5q-1 10 -3 19.5t-4 19.5q-2 3 -2.5 5.5t-2.5 4.5q-1 4 -0.5 9t-0.5 10q0 21 -1.5 46.5
t-18.5 41.5q2 6 2 12v11q0 31 -9 60.5t-10 60.5q-1 13 -1 26v26q0 61 2.5 121.5t8.5 121.5q1 13 4.5 25.5t3.5 26.5q0 18 -3.5 36.5t-3.5 37.5q0 21 6 42l1 2q0 4 -4 4.5t-4 4.5q0 2 3 13t4 16q-5 11 -7.5 22.5t-6.5 23.5q-29 0 -57.5 -6t-57 -13t-57 -12.5t-57.5 -5.5h-15
q-6 0 -14 1l-12 -4q-6 -2 -11 -2q-14 0 -27.5 6t-24.5 11q-3 11 -7.5 19.5t-8.5 17t-7 18t-3 23.5v4q6 6 13 8.5t13.5 5t12.5 5t11 7.5q9 -12 20.5 -16.5t25.5 -4.5q23 0 45.5 4.5t45.5 1.5q6 3 14 5l16 4q8 2 15 4.5t12 8.5h8q31 0 60.5 8t60.5 9q14 9 21 22q17 -7 35 -7
q8 0 16 1.5t14 5.5q5 -11 15.5 -16t20.5 -9q2 -22 8.5 -38.5t24.5 -30.5q-8 -5 -13.5 -12t-9.5 -16l-8 -17q-4 -8 -9 -15q0 -17 3 -33t3 -33q0 -8 -1.5 -16.5t-7.5 -14.5q5 -18 5 -34q0 -11 -2.5 -22t-10.5 -19q5 -7 6.5 -15t1.5 -17q0 -8 -0.5 -16.5t-0.5 -16.5
q0 -10 1 -15q-8 -28 -10.5 -56t-2.5 -56q0 -25 1.5 -49t3.5 -48q3 -23 3 -45q0 -8 -2.5 -10t-4.5 -8q7 -36 14.5 -74.5t7.5 -75.5q0 -4 2 -5.5t4.5 -2.5t5 -2.5t2.5 -4.5q2 -7 1 -15.5t-1 -15.5q0 -35 3.5 -70.5t11.5 -70.5q-3 -7 -4 -14.5t-1 -14.5q0 -19 4.5 -37
t10.5 -35.5t10.5 -35.5t4.5 -37z" />
    <glyph glyph-name="asciicircum" unicode="^" horiz-adv-x="843" 
d="M776 387v-10q-8 0 -11 -5t-4.5 -11.5t-1.5 -14t-1 -12.5q-9 -7 -20 -10.5t-19 -11.5q-26 7 -54.5 19t-54.5 10q-9 7 -20 13l-21 12q-10 6 -20.5 12.5t-17.5 16.5q-24 7 -43 18.5t-35.5 25.5t-32 30.5t-32.5 33.5q-6 0 -9.5 2.5t-11.5 0.5q-10 13 -15 25q-2 -1 -5 -1
q-6 0 -11.5 3t-10.5 3l-4 -1q-7 -6 -11 -13.5t-8 -15.5q-8 -5 -17 -3q-34 -56 -81 -98.5t-95 -85.5q-2 -7 -4 -15t-7 -13q-3 0 -6 -0.5t-5 -0.5q-25 0 -44 14t-28 37q4 10 7 21.5t8 22t12.5 18t19.5 10.5q20 22 43 41t45.5 38.5t42.5 41.5t34 51q14 6 22.5 17t15 24t14.5 25
t20 20l16 -2q8 -1 16 -1q9 0 18 3q2 -5 7 -8t8 -10q18 -3 31 -10.5t24 -17.5t22 -19.5t26 -16.5q2 -7 6 -12.5t5 -13.5q1 1 4 1q6 0 10 -4t11 -4q0 -9 5.5 -13t8.5 -12q24 -16 47 -32.5t49 -29.5q9 -5 18.5 -7.5t18.5 -5.5q7 -3 12.5 -10.5t12.5 -11.5q14 0 27 4.5t27 6.5
q11 -26 40 -25q2 -8 4.5 -16t2.5 -17z" />
    <glyph glyph-name="underscore" unicode="_" horiz-adv-x="544" 
d="M544 -113q-10 -1 -17.5 -5t-15.5 -6q1 -1 1 -3q0 -5 -3 -7.5t-1 -10.5q-15 -9 -31 -13t-32.5 -7t-32.5 -7t-30 -12v10q-5 -2 -10.5 -4t-12.5 -2q-10 0 -19 3t-19 3q-8 0 -14 -3q-10 1 -15.5 5t-12.5 9q-5 -9 -15 -11.5t-18 -2.5q-11 0 -20.5 1t-18.5 2q-16 -4 -30 -4.5
t-30 -0.5q-14 0 -26.5 -1.5t-25.5 -7.5q-4 10 -17 10q-6 0 -12.5 -0.5t-12.5 -0.5q-10 0 -15 5q-4 -1 -3.5 -6t-0.5 -8q-15 6 -32 6q-14 0 -27 -3t-26 -3q-7 0 -14 2t-12 2q-6 0 -9 -2.5t-5.5 -5.5t-5.5 -5.5t-9 -2.5q-11 0 -15.5 7t-12.5 9q0 19 -10 34t-10 34q0 3 0.5 7
t0.5 7q14 19 40.5 27.5t49.5 8.5q11 0 16 -4t13 -11q70 8 140.5 11t140.5 8q23 1 46 3l46 4q3 0 4 2.5t1.5 5t2 4.5t5.5 2q11 0 15 -6t12 -8q7 4 16.5 5.5t18.5 3.5t17.5 4.5t14.5 7.5q8 1 9 -3.5t6 -6.5q5 1 11 2.5t11 1.5h7q4 0 7 -1q9 -20 23.5 -36t23.5 -36z" />
    <glyph glyph-name="grave" unicode="`" horiz-adv-x="467" 
d="M467 564q-1 -15 -7.5 -23t-6.5 -20q0 -8 3 -14q-7 -3 -7 -11h-4q-8 0 -15.5 -4t-15.5 -4q-26 0 -44 13.5t-39 22.5q-5 2 -10 2h-9q-7 0 -10 2q-1 2 -1.5 5.5t-2.5 5.5q-1 1 -9 3.5t-17.5 5.5t-18.5 6.5t-12 5.5q-5 3 -8.5 10.5t-10.5 3.5q1 3 1 6q0 5 -2.5 10.5t-8.5 5.5
q-2 0 -4.5 -1t-5.5 -1q-2 0 -4 2q-8 10 -17 20q-16 17 -33 30t-26 36q-18 9 -31 22l-26 26q-13 13 -28 23.5t-37 14.5v7q0 13 4 25t4 24q0 6 -1 9q14 5 18 17.5t4 25.5q10 11 26 13t29 2h10q5 0 10 -1q24 -14 38.5 -35t22.5 -47q14 -11 24.5 -26t29.5 -21q8 -20 21 -35.5
t28 -29.5t29.5 -28.5t26.5 -31.5q17 -7 37 -13.5t39.5 -14.5t37 -18.5t29.5 -25.5z" />
    <glyph glyph-name="a" unicode="a" 
d="M757 73q-3 -14 -12.5 -22.5t-22.5 -13.5t-26.5 -6.5t-24.5 -1.5q-5 0 -9.5 0.5t-9.5 0.5t-5 -5t-5 -7q-5 2 -10 3t-10 1q-7 0 -13.5 -1t-12.5 -1q-8 0 -11.5 2t-6 4.5t-5 5.5t-7.5 5q-7 3 -11.5 1t-13.5 6q-12 10 -20.5 24.5t-16.5 30.5t-17 32t-21 28h-8q-18 0 -25 -15
q-5 3 -10 7.5t-11 7.5q-23 -7 -48 -12t-50 -5h-14q-6 0 -13 2q-10 -4 -18 -9.5t-18 -5.5q-6 0 -14 4q-6 0 -5.5 -5t-6.5 -5h-9q-14 0 -27.5 -1t-27.5 -1q-19 0 -39 5q-5 -3 -11 -3q-4 -2 -6 -6.5t-4 -8t-5.5 -6t-9.5 -1.5q-2 -12 -10 -19t-8 -21q-11 -6 -18 -15t-14 -19
t-14.5 -19t-18.5 -14q-5 -6 -3 -19q-11 -9 -27 -16t-30 -7q-29 0 -40 31q0 10 1.5 21.5t4.5 22t9 19t17 12.5q0 9 -6 12.5t-5 12.5q27 13 47 34t36.5 44.5t33.5 47.5t38 43v21q30 32 39 72q11 2 14.5 10t3.5 19q5 0 6.5 4.5t8.5 2.5q9 24 20 44t22 40.5t19.5 42.5t12.5 49
q14 1 15.5 13.5t3.5 22.5q15 14 22.5 33t13.5 39.5t13.5 41t21.5 36.5v3q0 5 -4 6.5t-4 6.5q1 1 1 2q12 5 18 16.5t18 16.5q21 -17 37 -20.5t42 -5.5q13 -14 14.5 -33.5t6.5 -38.5q8 -32 17.5 -62.5t14.5 -62.5q3 -19 11 -36t11 -35q2 -14 0 -31.5t4 -30.5l7 -16
q5 -11 8.5 -23t6.5 -24q8 -30 14.5 -64.5t20.5 -62.5q5 -10 15.5 -14t23.5 -5.5t25.5 -1t21.5 0.5h10q6 0 12 -2q4 -8 4 -14q0 -12 -8 -19t-8 -16q0 -5 4 -11q-4 1 -12 1q-23 0 -45 -8q8 -17 21.5 -28.5t28.5 -21.5q10 8 21 8q12 0 22.5 -5.5t22.5 -5.5q9 0 13 3
q8 -9 13 -18.5t13 -17.5zM444 233q-2 17 -6.5 24.5t-7.5 18.5q-4 14 -5.5 30t-4.5 31q-7 34 -15.5 68t-21.5 66q4 6 4 11v3q-9 10 -13 24.5t-7.5 29t-9 27t-17.5 20.5q-3 -6 -3 -14q0 -7 1.5 -13t1.5 -13q-10 -5 -14.5 -15.5t-14.5 -16.5q-8 -32 -23 -60.5t-31.5 -56.5
t-31.5 -56.5t-24 -59.5q-13 -9 -17.5 -23t-4.5 -28q9 -5 20.5 -5.5t22.5 -0.5t21 -2t18 -10q13 4 28.5 5.5t25.5 8.5q20 -7 43 -7q12 0 23.5 2t22.5 5q9 -2 14 -6.5t15 -3.5q5 4 6 8.5t5 8.5z" />
    <glyph glyph-name="b" unicode="b" horiz-adv-x="763" 
d="M763 705q0 -9 -4 -17l-7 -15q-3 -7 -6 -15t-2 -19q-14 -16 -28 -31t-25 -34q-11 1 -16.5 -5t-8.5 -16q-21 -7 -37 -21.5t-28 -31.5q-53 -22 -99 -54t-84 -75q18 0 35.5 -4t35 -8.5t34.5 -8t35 -1.5q13 -12 29.5 -20t33 -15t32 -16t27.5 -22q0 -2 -0.5 -3.5t-0.5 -3.5
q0 -8 4 -15.5t4 -15.5q-5 -8 -9 -17t-9.5 -16t-12.5 -12t-19 -6q-5 -17 -16 -26.5t-24.5 -17t-26.5 -15t-22 -19.5q-30 -7 -58.5 -19.5t-50.5 -35.5q-15 -2 -30.5 -4.5t-30.5 -2.5q-21 0 -34 8.5t-15 31.5q3 7 9 12l13 10q7 5 12.5 10.5t8.5 13.5q2 0 5 -0.5t6 -0.5
q12 0 19 5t13.5 10t14.5 9t21 3q7 13 21 19.5t29 12t28.5 13t18.5 22.5q-5 8 -13 12.5t-18 7.5l-19 6q-9 3 -16 7q-11 -3 -21 -3q-21 0 -41 4t-41 4q-19 0 -33 -5q-5 1 -10.5 3t-10.5 4q-23 -9 -48 -9h-65q-8 0 -16 -2q-11 -20 -11 -43q0 -17 5 -32.5t10 -32.5
q20 -18 37 -42.5t17 -53.5q0 -7 -1 -11q-10 7 -26 7q-14 0 -26.5 -4t-26.5 -6q-11 5 -23 10.5t-23 13.5q-8 17 -16 32.5t-20 29.5v4q0 35 -5.5 69t-5.5 69q0 16 1.5 32.5t9.5 30.5q-3 24 -3 50q0 52 6 104t6 106q0 11 -0.5 22t-1.5 22h-4q-13 0 -25 -3.5t-24 -7.5t-25 -7.5
t-26 -3.5q-8 -4 -13 -8t-10 -7t-11.5 -5t-15.5 -1q-11 -7 -17.5 -10.5t-18.5 -7.5q-6 -2 -10 -6l-8 -7q-4 -3 -9 -6t-13 -3q-7 0 -10 1q-6 5 -10.5 12t-9 13.5t-10 12t-13.5 8.5q4 5 3.5 8.5t-0.5 8.5q0 3 1 4q5 18 18 28.5t29 17t32.5 11.5t30.5 12q39 -1 71 7.5t66 24.5
q6 -3 12 -3q5 0 10 1l10 2q12 10 26 13t28 5t27 4.5t23 10.5h4q24 0 48.5 8t47.5 6q20 11 37 14t39 3q5 0 12 4.5t17 4.5q2 0 3.5 -0.5t3.5 -0.5q9 0 12.5 6t18.5 6q7 0 13 -0.5t12 -0.5q7 0 9 5.5t9 4.5q3 -4 10 -3.5t11 0.5q7 0 8 -4q16 10 35.5 13t37.5 3q7 0 14 -0.5
t15 -1.5q9 6 21 6q7 0 22.5 -6t32.5 -14t31 -17t17 -15q2 -2 2.5 -9t2.5 -12q5 -12 9.5 -22.5t4.5 -23.5zM652 694q0 2 -0.5 4.5t-0.5 4.5q-5 6 -13.5 9t-18 5t-19 3.5t-16.5 4.5q-21 -7 -46 -7q-23 0 -41 7q-9 -9 -23 -14t-29.5 -7.5t-31 -3t-27.5 -0.5q-4 0 -14 -6t-18 -6
q-6 0 -11 5q-9 -7 -25 -12t-33 -8.5t-34.5 -7.5t-29.5 -8q-12 -26 -13 -56.5t-1 -59.5q0 -17 -2 -33t-2 -33q0 -8 1 -16.5t6 -16.5q-8 -6 -10.5 -15.5t-2.5 -18.5q0 -11 2 -20t4 -17q32 3 58.5 12t50 22t45.5 30t46 36q10 2 16.5 6t16.5 4q4 14 15 19.5t17 16.5
q12 3 20.5 8.5t16.5 11t17.5 10.5t21.5 6q17 20 35.5 40t43.5 32q4 10 9 17.5t9.5 15t7.5 16t3 20.5z" />
    <glyph glyph-name="c" unicode="c" horiz-adv-x="742" 
d="M763 180q0 -10 -5.5 -16.5t-13 -11.5t-15 -9t-13.5 -10q-4 -4 -5.5 -9.5t-5.5 -7.5q-6 -5 -13 -6t-14.5 -2.5t-14.5 -4t-12 -9.5q-47 -5 -92.5 -13t-93.5 -8q-9 0 -19.5 -1.5t-19.5 -2.5q-21 -2 -41.5 -3t-41.5 -1q-29 0 -58 2.5t-57 8.5q-7 5 -16 8t-18.5 6t-17.5 7
t-12 12q-15 1 -26.5 6t-21 11.5t-19.5 13.5t-23 12q-10 14 -20.5 27.5t-25.5 22.5q-3 19 -9.5 38t-13 37.5t-11 37.5t-4.5 39q0 14 4 34t10.5 40.5t15.5 38.5t18 29q3 3 7 5t7 6q9 10 19 16.5t21 15.5q4 4 6.5 9t7.5 9q3 2 8.5 1t9.5 2t4 7t3 7q1 1 6 0.5t6 -0.5q7 0 16 9.5
t15 12.5q7 4 14 5.5t15 5.5q11 6 21.5 9.5t21.5 8.5q6 2 11 7t10 7q9 3 19.5 4.5t20 3t19 4t17.5 9.5h8q18 0 35 5t35 5q5 0 15 -2q8 5 18 5q17 0 34 -8.5t35 -8.5h6q4 0 8 1q11 -11 26.5 -12t26.5 -9q7 -6 11.5 -14t7.5 -17l6 -18q3 -9 8 -16q-5 -36 -29.5 -57.5
t-61.5 -21.5q-14 0 -23.5 3.5t-17 7.5t-15.5 8t-18 6q11 20 14 43q-11 5 -22 7t-21 7q-27 -7 -52.5 -9.5t-47.5 -21.5q-5 1 -10.5 2t-10.5 1q-6 0 -24 -8.5t-38.5 -19.5t-39 -22t-25.5 -15q-8 -5 -14 -12t-12 -14.5t-12 -14t-15 -9.5q-2 -11 -7 -19t-11 -17q-1 -18 -3.5 -36
t-2.5 -36v-13q0 -6 2 -11q10 -13 16.5 -29t22.5 -22q1 -4 -0.5 -5t-2.5 -5q6 -11 15.5 -17.5t19.5 -13t19 -13.5t14 -18q15 0 28.5 -5t26 -11t24 -11t23.5 -5q11 0 20 3q26 -8 52.5 -11.5t53.5 -3.5q33 0 66 4t66 7q12 2 23 2t22 2q14 2 26.5 13t24.5 16q11 -7 26 -7
q17 0 33 5.5t33 5.5h5z" />
    <glyph glyph-name="d" unicode="d" horiz-adv-x="716" 
d="M685 493q0 -10 -7 -13t-7 -12q0 -3 2 -5t2 -6v-4q-12 -58 -34.5 -101t-52.5 -79t-67.5 -68t-80.5 -67q-12 -10 -24.5 -20t-23.5 -21l-22 -21q-1 -1 -11 -4.5t-12 -4.5q-14 -6 -29.5 -14t-26.5 -20q-20 0 -34 -6t-31 -16q-5 0 -8.5 2t-7.5 4t-8.5 2.5t-11.5 -1.5
q-12 20 -26 34t-38 17q-3 17 -14 26.5t-22 20.5q-2 6 -3 14t-4 15t-8 12t-14 5q-1 6 5 6t6 5q0 6 -2 12t-2 13q0 5 1 9t3 9q-3 27 -3 55q0 54 7.5 106.5t7.5 106.5q0 24 -2.5 48t-9.5 47q-23 -5 -46 -11.5t-43 -17.5q-11 7 -23.5 8.5t-24.5 5.5q-7 14 -7 29q0 14 5 27l10 26
q24 5 47.5 15t47.5 18q8 2 20.5 5t17.5 5q7 3 9.5 11.5t7.5 14.5h17q6 0 13 -0.5t13 -3.5q36 9 72 11.5t74 7.5q4 0 12 1l17 3q9 2 16.5 3.5t10.5 1.5t3 -3h17q43 0 84 -11l82 -22q17 -14 34 -27t38 -23q5 -16 15.5 -25.5t23.5 -20.5q5 -13 13.5 -27.5t16.5 -29.5t14 -29.5
t6 -27.5zM592 478q-11 23 -21 48t-25 45q-18 5 -36.5 12.5t-25.5 26.5q-2 -1 -7 -1q-9 0 -16 7t-16 9q-8 1 -21.5 3t-28.5 3t-29.5 2t-22.5 1t-16.5 -0.5t-17.5 -1.5q-8 0 -10 -2.5t-8 -4.5q-5 2 -11 2h-12q-21 0 -41.5 -6.5t-40.5 -17.5v-4q0 -8 7 -9t8 -8q-5 0 -8 -0.5
t-3 -7.5q0 -10 2.5 -22t2.5 -24q0 -9 -2 -21t-10 -19q10 -9 10 -24q0 -10 -4 -21t-10 -19q-2 -42 -8 -85t-6 -85q0 -21 2.5 -41t8.5 -40q11 -11 23.5 -17t26.5 -12v-3q0 -3 -4 -6t-4 -8q0 -4 4 -4q42 12 79 29t69 46q3 3 6 3q2 0 5.5 -1t6.5 -2l-1 4q0 6 3.5 11t8.5 9l10 9
q5 5 8 10q8 2 11.5 8t12.5 6q2 11 11 16.5t11 16.5q20 11 35.5 27t29 34t25.5 37.5t25 37.5v4q0 16 5.5 26t8.5 24z" />
    <glyph glyph-name="e" unicode="e" horiz-adv-x="585" 
d="M646 636v-4q-7 -2 -7 -10q-11 -5 -23 -7.5t-23 -7.5q-11 1 -22.5 1.5t-22.5 0.5q-30 0 -60 -2t-60 0q-14 -8 -30.5 -12.5t-31.5 -4.5q-12 0 -21 3q-24 -12 -52.5 -20t-57.5 -15.5t-55.5 -17t-46.5 -26.5q-2 -14 -3 -27.5t-1 -26.5q0 -14 1.5 -26t6.5 -24q5 -2 11.5 -3
t11.5 -1t10 1.5t7 6.5q15 2 30 1.5t30 -0.5t29.5 1t28.5 5q16 4 31.5 5t30.5 2t31 3.5t33 10.5q13 -5 26.5 -5t26.5 -2q7 -5 11.5 -11t4.5 -14q0 -14 -10 -28t-16 -26h-11q-24 0 -46.5 -6.5t-45 -15t-45 -15t-46.5 -6.5q-4 0 -4.5 -4.5t-2.5 -6.5q-5 1 -15 1q-23 0 -44 -5
t-43 -5q-6 0 -12 0.5t-12 1.5q-5 -8 -13 -10.5t-15 -8.5q-3 -9 -3.5 -22t-1 -26.5t-2.5 -25.5t-8 -19q1 -5 8 -3.5t7 -6.5q0 -9 -2 -19t-2 -20q0 -19 4.5 -41.5t14 -41.5t25.5 -31.5t40 -12.5q16 0 30 6t23 20l5 1q4 0 7.5 -1t7.5 -1q6 0 15.5 7.5t21 17.5t23.5 19.5
t23 13.5q7 14 13.5 28t19.5 22v29q10 11 21.5 20t17.5 23q5 -2 9.5 -3t9.5 -1t10.5 1t10.5 3q8 -11 12.5 -24.5t11.5 -25.5q-9 -18 -21 -43t-26 -50t-29.5 -47.5t-30.5 -34.5q-3 -3 -13 -7q-11 -8 -20 -15.5t-17 -17.5q-29 -9 -55.5 -24t-52.5 -29q-12 3 -26 3
q-12 0 -24 -1.5t-26 -1.5q-4 5 -11.5 6.5t-5.5 10.5q-34 2 -55 18.5t-35.5 40.5t-23.5 52t-19 54v3q0 5 4 6t4 6q0 2 -1 3q-3 11 -5 19t-2 19q0 16 2 31.5t2 31.5t-4 28q4 5 6.5 13.5t3.5 17.5t1.5 18t2.5 16q-4 11 -7 19.5t-3 20.5v7q10 17 17 35t15 37v3q0 29 -2 58t-2 58
v19q0 10 1 19q8 4 12 11t12 11h33l6 10q3 5 4 11q11 3 21.5 8.5t19.5 11.5q14 8 25.5 14.5t23 11t24.5 7.5t30 5q8 0 10.5 3t7.5 7q12 -2 24 -3.5t24 -1.5q24 0 45 9q30 0 59.5 1t59.5 1q26 0 52 -2t51 -7q9 3 20 3q12 0 24.5 -2.5t24.5 -0.5q1 -11 5.5 -18.5t4.5 -17.5z
" />
    <glyph glyph-name="f" unicode="f" horiz-adv-x="767" 
d="M839 646q0 -6 -5.5 -10t-12 -8t-13 -9t-8.5 -12h-9q-6 0 -6 -4h-3q-9 0 -12 5.5t-13 5.5q-25 0 -49.5 -0.5t-49.5 -1.5q-69 0 -135.5 -4.5t-131.5 -28.5q-2 -1 -5 -1q-5 0 -5.5 4t-5.5 4q-14 0 -26 -3t-26 -4q-16 -14 -36.5 -23t-42 -17.5t-41.5 -18t-35 -24.5
q2 -12 3.5 -23.5t1.5 -22.5q0 -43 -8 -84.5t-8 -83.5v-15q0 -7 1 -15q2 -5 7.5 -6.5t9.5 -4.5q13 9 26.5 14.5t28 11t28 11t26.5 13.5h28q11 8 26 12t20 18q2 -2 4 -2h4q12 0 24.5 5t25.5 10.5t26 10.5t27 5q3 0 5.5 -0.5t5.5 -0.5q6 10 17 15.5t23 9.5t24.5 8t21.5 10h4
q6 0 9.5 -2.5t8.5 -4.5q28 18 57.5 18.5t61.5 3.5q7 -12 12.5 -19.5t5.5 -21.5q0 -7 -1 -10q-11 -4 -17 -7l-11 -6q-5 -2 -12 -3.5t-20 -1.5q-8 0 -7 -4.5t-5 -5.5q-14 -5 -28 -8t-28 -8q-29 -9 -57.5 -19.5t-58.5 -16.5q-25 -20 -54 -32.5t-60 -20.5q-33 -24 -65 -44.5
t-72 -34.5q-5 -5 -12 -9t-9 -12q-2 0 -4.5 0.5t-5.5 0.5q-14 0 -21.5 -6.5t-18.5 -8.5q-5 -15 -5 -26q0 -14 5 -25t12.5 -21t16 -19.5t14.5 -20.5q-2 -12 -7.5 -19.5t-12.5 -14t-13.5 -13.5t-9.5 -18q-18 -3 -35 -3q-11 0 -22.5 2.5t-21.5 8.5q-16 22 -22.5 47t-17.5 50l1 7
q0 22 -7.5 38.5t-22.5 33.5q1 2 1 7q0 13 -8 24q2 23 12.5 36t23.5 29v12q0 43 7.5 84.5t7.5 83.5q0 26 -4 46q-3 1 -8 1t-8 -2.5t-5 -5.5t-4.5 -6t-7.5 -4q-17 3 -22 16t-5 29q0 9 1 18t2 19q38 42 91 78t105 58q3 1 7 1t7 -1.5t7 -1.5q3 0 5 2q10 0 14 6t11 12q7 -5 12 -5
q10 0 20 9t22 11q46 8 90.5 13t88.5 23q10 -5 20 -6t20 -1q11 0 24.5 2.5t21.5 11.5q32 -4 68.5 -3t73 -1t70.5 -10t60 -29q2 -7 5 -13t3 -13z" />
    <glyph glyph-name="g" unicode="g" horiz-adv-x="753" 
d="M1055 553q-3 -9 -11.5 -12.5t-17.5 -5.5t-16.5 -6.5t-9.5 -14.5l-2 -1q-4 0 -5.5 2.5t-2.5 5t-2.5 5t-4.5 2.5q-11 0 -21.5 -2t-20.5 -2q-15 0 -27 4q-7 -2 -7.5 -9t-6.5 -9q-5 -2 -12 -1.5t-14 -1.5l-32 -8q-16 -4 -32 -4q-9 0 -13 1q-15 -12 -34 -17.5t-39.5 -10
t-40 -11.5t-34.5 -22q-8 2 -14 2q-13 0 -23 -5.5t-21 -10.5q-5 -2 -10 -2t-11 -2t-7.5 -6.5t-6.5 -8.5q0 -36 7 -71.5t7 -71.5v-4q2 -17 11 -31.5t9 -29.5q0 -5 -2 -11q26 -6 34.5 -26.5t14 -44t15 -43.5t37.5 -25q2 -10 3 -20.5t1 -20.5q0 -14 -3 -27.5t-12 -24.5
q-15 -1 -22 -1t-21 -6q-20 12 -35.5 27.5t-29 33t-26.5 36t-28 35.5q-52 -13 -106.5 -17.5t-108.5 -4.5q-2 -2 -6 -2t-7.5 -0.5t-6 -2t-1.5 -5.5q-7 4 -15.5 5.5t-15.5 1.5q-5 0 -10 -0.5t-10 -3.5q-38 7 -73.5 19.5t-72.5 20.5q0 8 -4 11.5t-7 10.5q-42 26 -70.5 63
t-23.5 90l-7 14q0 16 7 23q-4 7 -14 14q9 14 16 29t10 32q1 5 1 9t2 9q2 6 5.5 13.5t6.5 13.5q16 34 35.5 65.5t49.5 54.5q2 17 10 28.5t17.5 21t19 19.5t14.5 24q20 17 40.5 33t34.5 38q18 6 34 15.5t27 24.5q24 2 47.5 9t49.5 7q11 0 26.5 -4.5t23.5 -15.5q1 -2 1 -5l1 -5
q1 -2 2.5 -3.5t5.5 -0.5q0 -22 -5 -44.5t-26 -34.5q-13 4 -28 4q-20 0 -36.5 -7.5t-32 -17t-31.5 -19t-34 -13.5q-2 -8 -3.5 -14.5t0.5 -14.5q-5 0 -7.5 1.5t-7.5 1.5q-7 0 -9.5 -8t-4.5 -13q-19 -8 -31.5 -22.5t-23 -31t-22.5 -31.5t-30 -23q-8 -32 -15.5 -63t-17.5 -62
q3 -12 3 -25q0 -16 -3 -29q5 -8 10 -19l12 -23q6 -12 12.5 -22t12.5 -15q11 -8 34 -14.5t41 -21.5q2 0 5 0.5t5 0.5q12 0 26 -6t18 -6q56 0 122 7.5t122 18.5q2 10 2 17q0 13 -4 25.5t-13 21.5q0 15 0.5 30t0.5 30q0 25 -2 53t-10 52h-2q-13 0 -23.5 -6.5t-21.5 -6.5
q-6 0 -10 3q-12 -14 -29 -21t-36 -12.5t-37.5 -11.5t-33.5 -17q-8 3 -15 3t-13.5 -1t-14.5 -2q-21 18 -21 45q0 14 4.5 27.5t12.5 25.5q5 3 12 3.5t14 2t11.5 4.5t5.5 11q3 -3 5 -3t4 1t4 1t3.5 -2t1.5 -4q43 23 88 39t91.5 29t93.5 24.5t93 25.5q7 6 15 9t14 9q7 -4 17 -4
q14 0 30.5 5.5t27.5 13.5q4 -1 7 -1h7q20 0 37.5 6t34.5 16h5q31 0 61.5 7t62.5 7q41 0 72 -21v-12q0 -8 0.5 -14.5t3.5 -13.5z" />
    <glyph glyph-name="h" unicode="h" horiz-adv-x="688" 
d="M637 467q-4 -10 -8 -19t-6 -20q-7 -5 -15.5 -7.5t-17.5 -5t-16.5 -6t-11.5 -10.5q-3 -15 -3 -28q0 -17 6 -29q-3 -9 -4 -19t-1 -19q0 -33 8 -65.5t9 -65.5q0 -5 -1 -11t-1 -11q0 -21 16 -28q-3 -5 -3 -9q0 -8 2 -14t1 -13q5 -10 10 -17.5t7 -18.5q-7 -14 -17 -25.5
t-14 -28.5q-4 1 -9 1q-7 0 -11 -3t-6.5 -7.5t-5.5 -9t-8 -6.5h-3q-5 -1 -8.5 0.5t-6.5 1.5q-2 0 -8 -2q-8 10 -11 23.5t-3 26.5q0 14 4 25q-11 9 -13.5 27t-5.5 30q-8 37 -18.5 72t-12.5 72q-1 14 -1 27v52q0 13 1 25q0 9 1.5 17.5t1.5 17.5q0 12 -8 23q-71 -3 -134.5 -25.5
t-126.5 -53.5q-4 -23 -5 -45t-1 -45v-44q0 -25 2 -42q5 -29 29.5 -44.5t49.5 -23.5q-1 -15 -6 -25.5t-12.5 -19t-16.5 -16.5t-18 -18q-8 5 -16 7t-17 2.5t-18 1.5t-18 4l-22 30q-11 15 -24 30v9q0 27 -10 52t-15 51q3 9 4 18t1 19q0 20 -1.5 39t0.5 38h-5q-9 0 -19 -4.5
t-19.5 -10t-18 -10t-14.5 -4.5q-3 0 -6 1t-7 1q-5 0 -12 -4t-15.5 -8.5t-17.5 -8.5t-18 -4q-14 0 -28 12q-2 8 -1.5 15t0.5 15t-3 17q7 13 18.5 20.5t24 14t25.5 13t22 17.5h6q14 0 25.5 6t26.5 5q5 2 7 15l4 -1q22 0 39 15q11 62 18 125t7 126q0 6 -4 12q-2 8 -2 15v15
q0 11 1 23t5 24q10 6 21 6q13 0 25.5 -3.5t24.5 -5.5q9 -9 13.5 -20t5.5 -22.5t0.5 -23t-0.5 -22.5q0 -22 5 -43t5 -41q0 -5 -3.5 -7.5t-3.5 -13.5t2 -23t2 -24q0 -14 -4 -29t-7 -29q60 5 123 15t120 32q1 2 1 6q0 6 -1 12t-1 13q0 12 8 19q-5 28 -7 56t-2 56v57q0 28 -1 56
q8 5 17 5q11 0 20.5 -5.5t22.5 -5.5q9 0 15 3q11 -10 15 -26t7 -33t6.5 -33.5t14.5 -26.5l1 -3q0 -4 -4 -6t-4 -8v-4q4 -16 6 -33t3.5 -34.5t4.5 -34t11 -30.5q5 1 13 1q20 0 31.5 -13.5t20.5 -27.5z" />
    <glyph glyph-name="i" unicode="i" horiz-adv-x="311" 
d="M229 137q-5 -8 -12 -14.5t-13 -13.5q-7 -3 -15.5 -3t-16 0.5t-14 0t-10.5 -4.5q-8 2 -12 7.5t-14 6.5q-4 1 -8 0q-15 17 -27.5 36t-23.5 36q-1 37 -6 75q-1 9 -3 18t-3 17q0 10 1.5 19.5t2.5 17.5q4 29 9 57t9 57q4 26 4 54.5t-9 53.5l-1 5q2 8 4.5 13.5t3.5 12.5
q2 11 -5 16q3 8 10 10.5t8 11.5q1 4 0 8q8 3 16.5 5.5t16.5 0.5q13 -2 23 -8.5t19 -14.5q16 -48 13 -101.5t-10 -107.5t-9 -105.5t16 -95.5l2 -1q5 -1 8 3.5t8 3.5q4 -2 5 -2q4 -20 13 -38t20 -36z" />
    <glyph glyph-name="j" unicode="j" horiz-adv-x="679" 
d="M715 679q-5 -9 -5 -18t-2 -18q-9 -1 -18 -6t-17.5 -10t-17.5 -9.5t-18 -4.5q-8 0 -15 5t-12 11q-18 -6 -39 -6.5t-42.5 -1t-42 -3t-37.5 -11.5q3 -9 4.5 -18.5t4 -18.5t7 -17t12.5 -14q0 -11 2 -20t2 -19q17 -38 36 -77t26 -81q2 -11 7.5 -13.5t6.5 -7.5v-33
q11 -12 15.5 -26.5t6.5 -30t3 -31.5t4 -31q-6 -8 -11.5 -17t-5.5 -20q0 -9 2 -13q-11 1 -15 -6t-6 -16q-16 -11 -32 -21.5t-30 -24.5q-11 -1 -19.5 -5t-19.5 -9q-11 -2 -23 -2h-22q-34 0 -67.5 3.5t-67.5 8.5q-14 11 -32 15.5t-35 6.5q-17 12 -40 24t-43 11q-6 16 -19 22
t-27 7q1 3 1 9q0 7 -4 10.5t-9 6t-11 5t-10 5.5q-11 8 -19 18.5t-16 21.5t-17 21t-20 18q-4 23 -9 45.5t-5 45.5q0 8 5 15t11 13t12 13t8 15q15 -7 35 -7q22 0 43 6.5t44 6.5q7 0 13 -1.5t12 -1.5q7 0 8.5 4.5t9.5 4.5q14 0 24 -10.5t19 -18.5q-1 -14 -9 -20t-13 -16
q-16 -1 -27.5 -5.5t-22.5 -10t-23 -9.5t-30 -4q-6 0 -10 -9t-9 -13q8 -8 14.5 -17t13 -17.5t15.5 -14.5t22 -9q2 -8 6.5 -12.5t7.5 -11.5q23 -8 42 -18.5t38 -20t39 -16.5t46 -10q8 -1 7 -5.5t4 -5.5q4 0 9.5 0.5t9.5 0.5q11 0 21 -2t21 -6q12 4 30.5 7.5t36 10t29.5 17
t12 28.5q0 31 -13 57.5t-20 55.5q-2 10 -3 22t-3.5 24t-7 21.5t-14.5 15.5q0 8 -2 17.5t-13 11.5q-3 22 -11.5 42.5t-18 40.5t-17.5 41t-10 44q-32 0 -62 -7t-59.5 -16.5t-59.5 -19t-60 -15.5q-18 8 -31.5 19t-35.5 14q3 13 5 29t7 31t14 26.5t24 16.5q16 -3 36 -3
q30 0 58 8t57 17h8q29 0 63 7t61 19q4 -2 3.5 -4.5t3.5 -3.5q11 10 29 12t37.5 2.5t37.5 2.5t29 12q14 -5 29.5 -6.5t31.5 -1.5q20 0 39.5 1.5t39.5 2.5q-6 2 -6 5q0 2 2 6q13 -3 23.5 -9.5t23.5 -8.5q-3 -5 -3 -11q0 -11 9 -16.5t16 -11.5z" />
    <glyph glyph-name="k" unicode="k" horiz-adv-x="640" 
d="M804 51q0 -8 -7 -13t-16 -10l-18 -9q-9 -4 -12 -11q-11 3 -21.5 4t-20.5 1q-13 0 -27 -2.5t-22 -13.5q-5 2 -9 2h-8q-15 0 -30.5 -2.5t-30.5 -2.5q-8 0 -15.5 1t-13.5 6q-9 -3 -19 -3q-13 0 -25 4t-23.5 9.5t-23.5 10.5t-24 8l-7 14q-16 3 -29.5 9.5t-26.5 14.5
t-25.5 15.5t-25.5 10.5q-5 4 -9 7.5t-6 10.5q-13 3 -24 8l-21 11q-10 6 -22.5 10.5t-29.5 5.5q-6 9 -17 17t-22 8q-7 0 -11 -3v-5q0 -12 7 -24t18 -17q-1 -2 -1 -6q0 -6 2.5 -12t9.5 -8q-4 -11 -10 -22.5t-15 -21.5t-19.5 -16.5t-23.5 -6.5q-4 -2 -5.5 -6t-2 -8.5t-2 -8.5
t-4.5 -6q-4 -1 -11 -1q-10 0 -17 3t-15 8v4q0 12 -4.5 19t-10 13.5t-10 13.5t-4.5 19q-3 -2 -6.5 -3t-4.5 -4q-2 10 -2 17q0 20 6.5 38t6.5 38v15q0 23 -1 45t-1 44q0 19 1 37.5t4 37.5q11 66 18.5 131.5t24.5 130.5q-1 5 -2.5 10t-1.5 10q0 4 1 5q4 20 18 33.5t36 13.5h3
q12 -5 18.5 -14.5t20.5 -7.5q0 -2 -0.5 -4t-0.5 -4q0 -11 6 -16t14 -11q-5 -10 -6.5 -23t-2.5 -26t-3.5 -25t-9.5 -20q4 -10 5 -20t1 -21t-1 -22.5t-1 -23.5q0 -11 3 -20q22 0 25 21q26 7 46.5 19.5t39.5 26.5t37.5 29t41.5 26v2q0 5 3 6.5t1 8.5q15 5 25.5 13.5t19.5 18.5
l19 21q10 11 22 19q8 17 14.5 36t17.5 35q19 0 41.5 -3t38.5 -14q-2 -8 7 -11q-11 -42 -33 -75.5t-57 -56.5q-5 -11 -13 -19t-16 -15.5t-16 -15.5t-13 -19q-12 -2 -20.5 -7t-16 -11.5t-16 -12t-18.5 -8.5q-8 -10 -18.5 -17t-21 -13.5t-19.5 -14t-13 -19.5h-26
q-11 -19 -28.5 -31.5t-35.5 -23.5q3 -12 11 -19.5t17.5 -13.5t19 -12.5t16.5 -15.5q42 -16 81 -36.5t74 -49.5q2 1 5 1q8 0 13 -4.5t14 -3.5q4 -10 11 -13.5t14.5 -5.5t14.5 -6t10 -14q15 -1 27.5 -6t22.5 -16h12q32 0 62 -6t61 -6q16 0 31 2.5t29 9.5q5 -3 11 -6t13 -3
q5 0 15 2q1 -11 7.5 -21t6.5 -22z" />
    <glyph glyph-name="l" unicode="l" horiz-adv-x="538" 
d="M558 257q0 -11 -8 -16.5t-8 -14.5q0 -4 4 -10q-14 0 -19 -9t-10 -20h-13q-5 0 -8 -2t-5.5 -5.5t-6.5 -10.5q-19 -4 -36.5 -12.5t-34 -18t-33.5 -19t-35 -15.5q-9 -15 -26 -24h-3q-5 -1 -8.5 1.5t-8.5 2.5q-3 0 -4 -1q-30 -20 -67 -20q-10 0 -19 1.5t-19 1.5q-3 0 -4 -2
l-2 -4q-1 -2 -2.5 -4t-7.5 -2q-11 0 -22 3t-23 1q-23 13 -36 25t-24 36q-5 11 -13.5 21t-12.5 22q-1 4 -3 14.5t-4 22.5t-3.5 23t-1.5 15q0 12 1.5 23.5t3.5 23.5q6 38 8.5 76.5t16.5 74.5q-2 11 -2 21v22q0 19 -5 32q8 13 8 29q0 18 -15 21v3q0 21 -14 33q0 35 17.5 52.5
t46.5 30.5q4 6 3 10q7 -2 13 -4t12 -2q10 0 18 3q3 -12 15.5 -14.5t20.5 -6.5v-13q0 -31 15 -59q-4 -8 -5 -17t-1 -17q0 -12 1 -24t1 -23q0 -12 -2.5 -24t-11.5 -21q-1 -13 -1.5 -29.5t-2 -33.5t-5.5 -33t-12 -26q-1 -15 -1.5 -30.5t-0.5 -29.5q0 -22 2.5 -52t13.5 -50
q5 -8 19.5 -12t23.5 -4q11 0 22.5 3.5t16.5 12.5q6 -1 8 -6t7 -8q57 24 114 46t112 51q8 -4 17 -4q10 0 20 2t20 2h7q2 -6 2 -9z" />
    <glyph glyph-name="m" unicode="m" horiz-adv-x="995" 
d="M975 126q-5 -16 -3 -32q-3 -4 -7 -5t-8 -2.5t-6.5 -4t-0.5 -9.5q-33 -2 -63 -14t-59 -26q-15 5 -26 12t-28 9q-17 34 -31.5 71.5t-14.5 75.5q0 28 10 51q0 30 5 59t11.5 57.5t11.5 57.5t5 59v22q-2 0 -5 -4.5t-5.5 -10t-4.5 -10.5t-3 -6q-17 -13 -26.5 -32.5t-20.5 -36.5
q-14 -21 -29.5 -41t-38.5 -31v-2q0 -5 -3 -7t-1 -10q-25 -8 -46.5 -23t-35.5 -38q-20 -5 -37.5 -13.5t-35.5 -18.5q-8 -4 -17 -10t-18 -8q-8 -3 -21.5 -4t-28 -2t-28.5 -1h-22q-5 0 -13 5t-17.5 11t-19.5 11.5t-19 7.5q-8 26 -22.5 46.5t-30.5 41.5q-5 24 -13.5 50t-29.5 43
q5 7 5 16q0 11 -5 21t-5 22q0 8 1 12q-11 -12 -15.5 -30.5t-4.5 -33.5q0 -12 3 -22q-10 -14 -12.5 -35t-2.5 -37q0 -20 3 -39q-16 -16 -16 -39q0 -13 6 -23q0 -4 -2 -6t-4.5 -3t-5 -2.5t-2.5 -5.5q0 -5 0.5 -11t0.5 -12q0 -14 -1 -29t-1 -29q0 -29 5.5 -41.5t14 -18.5
t18.5 -12t20 -23q-3 -9 -10.5 -14.5t-14 -11t-11.5 -12.5t-4 -20h-5q-13 0 -25 -4t-25 -4q-3 0 -6 0.5t-6 0.5l-10 6q-5 3 -10 3t-13 -2q-14 45 -21.5 93t-7.5 94q0 5 2.5 10.5t7.5 3.5v19q0 31 5.5 60.5t5.5 61.5q0 9 -0.5 18t-1.5 17q5 17 10.5 34.5t5.5 36.5q0 8 -3 19
q8 6 12 15.5t6 21t3 22.5t2 20q10 20 11 43t10 43q-1 4 -1 14q0 20 6.5 40.5t26.5 31.5q18 -7 42 -7q23 0 44 7q6 -2 11 -4.5t10.5 -5t11.5 -4t14 -0.5q10 -29 17.5 -59t11.5 -61q2 -13 1.5 -28t1.5 -28q1 -8 5 -14.5t8 -14.5t6.5 -18t1.5 -25q11 -26 24.5 -49.5t29.5 -46.5
q9 -3 16 -7.5t9 -14.5q9 0 16 -3l17 -5q38 12 70.5 32t68.5 34q44 43 76 95.5t64 104.5v22q6 3 10.5 7.5t11.5 6.5q1 12 5.5 23.5t10 22t9.5 21t4 22.5q0 7 -1 12q15 15 36 15q20 0 40.5 -9.5t38.5 -17.5q11 -24 16.5 -50.5t7.5 -54.5t2 -56v-71q-1 -8 -5.5 -11.5
t-6.5 -10.5v-10q0 -5 -1 -10q0 -21 -5 -44q-5 -29 -12.5 -58.5t-7.5 -59.5q0 -11 1 -22t4 -22q-5 -9 -5 -23q0 -16 5.5 -29.5t13.5 -26.5q14 0 28 1t29 1q14 0 26 -2.5t25 -10.5z" />
    <glyph glyph-name="n" unicode="n" horiz-adv-x="758" 
d="M671 657q-2 -12 -5.5 -20.5t-1.5 -22.5q-10 -1 -15.5 -6.5t-9 -12.5t-7 -14.5t-8.5 -13.5q8 -36 9 -73t5 -73q5 -46 15.5 -90.5t10.5 -90.5q0 -14 -0.5 -26t-0.5 -25q0 -8 0.5 -16.5t0.5 -16.5q0 -29 -7.5 -58t-11.5 -58q-12 -11 -20.5 -24t-17.5 -24t-21 -19.5
t-30 -11.5q-3 -10 -11.5 -15t-14.5 -14h-2q-25 0 -43 7t-33.5 16t-31.5 19t-37 16q-28 23 -51 50.5t-52 49.5q-7 20 -18.5 33t-22.5 30q-5 7 -7.5 13t-6.5 14q-3 8 -9.5 11t-11.5 7q-8 31 -23 57t-35 50q-6 -11 -9.5 -23.5t-6.5 -25t-7.5 -25t-11.5 -22.5v-3q0 -5 4 -6t4 -6
q0 -1 -0.5 -2t-0.5 -2q-5 -4 -7.5 -10t-10.5 -7q1 -5 1 -10v-9q0 -29 -6.5 -58t-6.5 -59v-13q0 -7 1 -13q2 -6 6 -12t4 -11q0 -7 -6 -13q7 -5 16 -11t16.5 -13.5t12.5 -16t5 -18.5q0 -17 -11 -24t-26.5 -11t-32 -7.5t-27.5 -12.5h-3q-12 0 -18 7t-18 7q-19 31 -26 69.5
t-7 73.5q0 43 7.5 86t18 85t23 83.5t23.5 83.5l1 3q0 5 -2.5 7t-2.5 6q0 2 1 2q3 10 6.5 19t5.5 20q6 28 8.5 57.5t3 58.5t2 58.5t6.5 58.5q8 8 15 17t18 16q20 -1 40 -6t38 -16q12 -43 16.5 -86t15.5 -86v-3q0 -5 5.5 -4.5t8.5 -3.5q-2 -3 -2.5 -7t-0.5 -8v-17q2 -8 5 -17
t13 -11q5 -32 15 -59t23 -52t28 -49.5t31 -51.5q25 -19 43 -43.5t36.5 -47t42 -39.5t61.5 -21q5 4 7 11l5 14q3 7 6.5 12.5t10.5 8.5q2 28 4.5 57t12.5 55q-5 9 -5 22q0 10 1.5 19t1.5 18q0 19 -8 31q0 7 1 14.5t6 14.5q-8 20 -12.5 42t-4.5 45q0 13 3 27q-6 15 -8 35l-4 41
q-2 21 -6 39t-15 29q6 9 6 21q0 20 -6 38t-6 38q0 14 6 28q22 -1 43.5 -4.5t42.5 -3.5q6 -8 14 -13t17 -9.5t17.5 -9.5t13.5 -14z" />
    <glyph glyph-name="o" unicode="o" horiz-adv-x="702" 
d="M646 579q-6 -9 -7 -20t-1 -20q0 -12 0.5 -23.5t0.5 -22.5v-15q-2 -7 -6 -14t-6 -14q-14 -37 -14 -74v-2q-5 -12 -9.5 -22t-8.5 -19.5t-6 -20t-1 -24.5q-14 -35 -37 -63.5t-45 -58.5q-21 -8 -38.5 -21t-33.5 -29q-31 -10 -61 -23t-54 -35q-19 -2 -38 -6t-37 -12h-12
q-9 0 -13 4q-13 -7 -27 -9.5t-28 -2.5q-18 0 -35.5 2.5t-35.5 5.5q-10 14 -28 21.5t-32 14.5q-29 40 -42 77.5t-27 84.5q2 14 7 27.5t4 29.5q18 52 47.5 94.5t67.5 81.5q0 6 2.5 10t0.5 12q1 -1 4 -1q8 0 10 4.5t1 10.5q36 23 65.5 53t67.5 50q3 9 10 15t11 14q32 9 58 27
t55 32q16 9 30.5 12.5t31.5 7.5q6 2 11 3t11 1q18 0 35 -6.5t35 -6.5q5 0 8.5 0.5t7.5 1.5q17 -21 43 -32q6 -15 14.5 -26t17.5 -21.5t16.5 -23t9.5 -29.5zM546 527q0 5 -1 9q-10 3 -19 8t-20 5q-7 0 -14 -3q-1 7 -5.5 10t-10 5.5t-11 4t-9.5 5.5q-3 8 -6.5 16.5t-12.5 12.5
q-9 -9 -21 -14.5t-24.5 -10.5t-24 -12t-19.5 -17h-18q-6 -11 -17 -16.5t-19 -15.5q-16 -8 -29.5 -19.5t-26.5 -24t-25.5 -25.5t-26.5 -24q-13 -28 -28.5 -48.5t-29 -41.5t-23 -45.5t-9.5 -60.5v-10q0 -5 1 -10q13 -14 21.5 -30t28.5 -23q20 -8 42.5 -7t43.5 -5
q48 9 92.5 29.5t84.5 49.5q6 5 14 10.5t13 11.5q5 5 8.5 11t7.5 11q8 13 18 26t21 24q5 22 13 42.5t16 40.5t13.5 41t5.5 44q0 5 -0.5 11t-1.5 11q8 11 8 24z" />
    <glyph glyph-name="p" unicode="p" horiz-adv-x="814" 
d="M794 556q0 -14 -1 -28t-3 -28q-7 -10 -13.5 -17.5t-8.5 -18.5q-11 -8 -24.5 -22t-11.5 -28h-14q-12 -18 -28 -31t-34 -25l-35 -23q-17 -11 -32 -26q-8 -1 -13 -3t-13 -1q-31 -20 -64.5 -35t-67 -29.5t-66.5 -30.5t-63 -37q-3 1 -8 1q-9 0 -18 -2.5t-18 -2.5q-4 0 -10.5 1
t-9.5 3q-5 3 -9 9t-6 13.5t-3 14.5t-1 12q0 6 1 13t3 13q29 2 58.5 15t56.5 25q7 3 11.5 7.5t9.5 8t11 6.5t15 3h3q63 29 123.5 63t120.5 69q3 9 9.5 18t12.5 17.5t11 17.5t5 18q0 18 -17 30h-4q-12 0 -21 3.5t-17 7t-18 6t-23 1.5q-5 4 -16 7t-18 3q-36 0 -71 -4.5
t-70 -5.5q-9 -5 -17 -9t-19 -4q-5 0 -9 0.5t-9 1.5q-19 -8 -43 -13.5t-47.5 -13t-43.5 -18.5t-31 -30q0 -5 2 -8.5t2 -8.5v-4q-6 -6 -8 -13.5t-3 -15t-2.5 -15t-7.5 -14.5q4 -15 4 -33q0 -20 -2.5 -40t-2.5 -40q0 -19 4 -34q-6 -6 -5 -18t-5 -18q0 -8 4.5 -11t5.5 -10
q-4 -17 -4 -37q0 -29 6.5 -59t15.5 -59q16 5 34.5 8.5t35.5 3.5q3 0 6 -0.5t6 -0.5q2 -11 8 -20t11 -20q-5 -7 -8.5 -11.5t-3.5 -12.5q-14 -1 -23 -7.5t-20 -14.5h-4q-17 0 -28 -6.5t-25 -14.5q-12 5 -24 5q-13 0 -26 -5q-16 7 -26 21.5t-17 32t-12.5 35.5t-12.5 33v16
q0 23 -3.5 44.5t-3.5 44.5q0 9 1.5 19t5.5 19q-2 9 -2 17v19q0 30 2.5 60t2.5 60q0 22 -3 45q-5 -2 -9 -4t-9 -2t-9.5 1t-8.5 2q-10 9 -14 22t-11 24q0 19 5.5 31.5t13.5 23t16.5 20.5t14.5 25h4q16 0 32 10.5t36 10.5q7 9 19 15.5t25.5 10.5t27 5.5t25.5 1.5q4 7 12 9.5
t16.5 5t16 5t12.5 9.5q8 -2 15 -2q13 0 25 3.5t24 8t24.5 8.5t26.5 4q5 0 10 -0.5t10 -0.5q8 0 9.5 6t6.5 9q3 -1 11 -1q20 0 39 3.5t39 3.5q9 0 18 -1t18 -5q2 3 4 5t3 5q49 -3 92.5 -20t90.5 -30q6 -9 14 -16l17 -14q9 -7 17 -14t14 -17v-15z" />
    <glyph glyph-name="q" unicode="q" horiz-adv-x="943" 
d="M953 -221q-6 -7 -16.5 -8.5t-21.5 -2t-22.5 -1.5t-18.5 -7q-6 2 -8 7t-6 8h-11q-24 0 -44.5 7.5t-39.5 17.5t-38 21t-40 18q-29 35 -53 73.5t-46 78.5l-44 78q-22 40 -46 78l-2 1q-8 0 -11 -3t-6 -3q-2 0 -7 5q-47 -20 -96.5 -33t-100.5 -21q-14 -2 -27 -3t-27 -3
q-8 -2 -14.5 -6.5t-16.5 -4.5q-6 0 -12 1.5t-10 5.5q-20 -6 -41 -6q-36 0 -67.5 16.5t-60.5 36.5q-5 9 -9.5 20t-15.5 16q-3 26 -10 50.5t-15 49.5q26 70 86 114q7 5 14 9.5t14 9.5q4 1 4 5q0 3 -1 5t-1 4t3 4q25 6 40 22.5t34 31.5q14 -1 25.5 6.5t21.5 15.5q4 2 4 5v9
q10 2 14 2t7 2t6 5l10 10q22 22 53.5 38.5t65.5 30t68 25.5t62 26q24 2 48 6t47 4q20 0 38.5 -6t28.5 -25q63 -2 116 -24.5t103 -57.5q4 -14 11 -26t14 -24.5t11.5 -25.5t4.5 -28q0 -28 -11 -53t-16 -51q-42 -35 -89 -61t-94 -55q-25 0 -40.5 -9t-35.5 -23q2 -8 7 -15.5
t5 -15.5q0 -6 -4 -12q17 -14 25 -37.5t15 -43.5q6 -20 15.5 -31.5t20.5 -28.5q14 -20 27 -40.5t27 -40.5q7 -5 19.5 -14t25.5 -18.5t25 -17.5t19 -11q6 -3 12 -3q4 0 7 1l6 2q-1 -1 -1 -3q0 -5 3 -5t5 -7q33 -2 53.5 -18t25.5 -49zM813 428q-1 21 -9 35t-16 33
q-14 5 -23.5 11t-18.5 11.5t-20.5 8t-27.5 1.5q-15 9 -32 9q-26 0 -50.5 -11t-50.5 -16q1 -1 1 -4t-2 -5.5t-2 -5.5v-2q8 -7 18.5 -9t17.5 -10q-3 -5 -3 -12q0 -6 4 -10t9 -7t9.5 -7t5.5 -10q-3 -14 -12 -23t-20.5 -14.5t-24.5 -8.5t-25 -4q-5 5 -9.5 9t-5.5 12
q-18 3 -29.5 12t-21 20.5t-18.5 23.5t-21 23q4 7 4 17q0 7 -3 13t-11 6q-5 0 -7 -4l-4 -7q-2 -3 -5 -6.5t-10 -3.5h-24q-23 -16 -48 -29.5t-49.5 -27t-47.5 -29.5t-42 -36q-5 -2 -8.5 -5.5t-9.5 -1.5q-6 -14 -21 -26t-31 -24.5t-28.5 -27.5t-12.5 -34q0 -20 16.5 -36
t35.5 -16q4 0 12 2q-1 -5 2.5 -9t9.5 -3q11 -3 21.5 -4t22.5 -1t24 0.5t24 0.5q17 0 37 -3q17 11 36.5 14.5t37.5 11.5l15 -7q14 15 37 20.5t42 10.5q0 17 -5.5 29t-12 22.5t-12.5 22t-6 28.5q-2 -1 -6.5 -0.5t-4.5 3.5q0 21 4.5 43.5t24.5 35.5q6 -3 13 -3q8 0 14 2t12 5
q3 -9 11 -7q7 -18 17.5 -35t20 -33.5t17.5 -34t10 -38.5h8q10 0 17 2.5t13 6.5t12 7.5t14 5.5q3 -3 10 -3q6 0 12 4t14 4q2 0 3.5 -0.5t3.5 -0.5q15 13 35 22t40 18.5t37.5 20.5t28.5 28q3 5 3.5 11t1.5 11.5t3.5 10t8.5 7.5z" />
    <glyph glyph-name="r" unicode="r" horiz-adv-x="995" 
d="M1292 174q-2 -15 -10.5 -23t-19.5 -15q-5 1 -9.5 1.5t-9.5 0.5q-31 1 -58.5 -8t-56.5 -13q-10 -2 -18.5 -1.5t-17.5 -1.5q-32 -5 -68 -8t-72 -7.5t-70.5 -11t-64.5 -18.5q-3 2 -6 4.5t-7 2.5q-10 0 -19 -3t-18 -2q-10 -6 -21.5 -8.5t-23 -4t-22.5 -4.5t-21 -11
q-8 4 -19.5 4.5t-15.5 7.5q-23 -11 -48.5 -14t-51.5 -2q-17 1 -39 5t-44 11.5t-41 18t-29 25.5q-7 10 -10 22t-14 18q3 23 7 45t8 45q20 17 38 36t34 40q19 9 35.5 22t33 26.5t33 26.5t35.5 23q3 7 8.5 11.5t11.5 9t11 10t7 13.5q35 21 61 53t34 72q-17 14 -38.5 18.5
t-44.5 6.5q-20 1 -41.5 0t-43.5 1q-22 -7 -45.5 -9t-46.5 -3.5t-45.5 -6t-43.5 -16.5q-4 0 -7.5 1t-7.5 1q-32 1 -60 -12.5t-55 -26.5q-2 -4 -2 -6q0 -6 2.5 -11.5t2.5 -11.5q-1 -1 -1 -2t-1 -2q-1 -5 -2.5 -9t-3.5 -9q-11 -32 -12 -63q-1 -26 0 -51t0 -51q-2 -32 -10 -60
q5 -24 9 -50.5t10 -52.5t14.5 -50.5t22.5 -46.5q-1 -2 1 -3t4 -1h8q5 0 4 -4q2 -3 3 -5.5t4 -4.5q2 -3 0 -8q-1 -20 -10 -37t-11 -37q-12 -3 -22 -3q-17 1 -30 9.5t-24 20.5t-21 24.5t-22 21.5q-7 28 -13.5 62t-21.5 58q4 9 4 22q1 20 -3.5 39.5t-2.5 39.5q0 11 2.5 22
t3.5 22q1 17 -3.5 33t-3.5 33q1 8 3.5 15.5t7.5 13.5q-5 12 -3 23q1 17 4 32t4 30q0 8 -1 15.5t-3 14.5l-9 3q-6 0 -11.5 -3t-9.5 -7t-7 -6.5t-6 -2.5q-2 0 -4.5 0.5t-4.5 0.5t-7.5 -4t-13 -8.5t-14.5 -9t-11 -5.5q-11 2 -17.5 7.5t-12 11t-11.5 10t-15 3.5q-3 6 -3.5 13
t0.5 14v16q7 13 18.5 21.5t24.5 14.5l26 12q13 6 24 15h9q18 -1 31.5 7t25.5 18.5t24.5 21.5t27.5 17q11 -5 23 -8.5t25 -4.5q13 0 27 4t22 15q5 -2 8.5 -2.5t8.5 -0.5q15 -1 30 4.5t29 13.5q20 -1 39.5 2.5t39 7.5t39 7.5t39.5 2.5q33 -1 65 6t65 5q23 -1 45.5 -3.5
t45.5 -1.5q13 -6 23.5 -10.5t26.5 -2.5q32 -27 58 -63v-17q-1 -23 -8 -45t-16.5 -43.5t-20.5 -42t-21 -40.5q-65 -59 -130 -117t-134 -112q-2 -10 -5.5 -18t-4.5 -17q0 -5 1 -8q7 -2 12.5 -7.5t3.5 -14.5h9q5 0 5 -4l16 -1q38 -2 76 2t76.5 9t76.5 9.5t76 5.5q9 3 19 5t18 8
h3q7 0 10.5 -4t10.5 -5q5 0 10.5 2t11.5 3q14 4 29.5 5t30.5 3q58 5 115 6.5t114 14.5q5 -7 14 -9.5t19 -5t18.5 -5.5t11.5 -12z" />
    <glyph glyph-name="s" unicode="s" horiz-adv-x="588" 
d="M542 126q0 -17 -8.5 -29.5t-6.5 -30.5q-14 -8 -23 -21t-17 -27q-66 -43 -141.5 -69.5t-155.5 -26.5q-5 0 -9 4.5t-8 9.5t-8.5 9.5t-10.5 4.5q-7 0 -11 -3q0 2 0.5 3.5t0.5 3.5q0 12 -3 24.5t-3 24.5q0 14 5 23h12q10 0 19.5 1.5t20.5 1.5t20 -6q55 2 104.5 20.5
t100.5 36.5q8 11 9.5 24.5t7.5 25.5q-26 22 -52.5 34.5t-61.5 8.5q-21 13 -44.5 15t-47.5 6q-6 1 -12.5 2.5t-13.5 1.5q-5 0 -9.5 -2.5t-2.5 -7.5q-5 8 -13.5 9.5t-14.5 7.5q-32 2 -56 11.5t-53 21.5q-8 3 -15.5 4.5t-14.5 5.5q-18 9 -29 24t-17.5 33.5t-9.5 38.5t-6 37
q9 16 16.5 33t12.5 36q6 3 12 5t13 5q-1 2 -1 5q0 5 3.5 10t1.5 10q22 20 42.5 41.5t35.5 47.5q15 5 24 15t18 20.5t20 19t28 10.5q4 7 11 11.5t14 8.5t13 9t9 14q16 0 29.5 6t26.5 13t26.5 13t29.5 6q4 0 8 -0.5t9 -1.5q7 -7 9.5 -16.5t3.5 -20.5t1.5 -22t3.5 -20
q-9 -17 -19.5 -34t-27.5 -26h-2q-7 -1 -13 3t-14 4q-5 0 -8 -3l-5 -5q-2 -2 -5.5 -4t-9.5 0q-14 -5 -11 -17q-19 -2 -32 -11.5t-24 -21t-22 -21t-26 -10.5q-17 -30 -41.5 -53t-40.5 -52q3 -8 4 -17t3 -19q9 -12 21.5 -21t24.5 -18h3q20 0 37 -7.5t36 -7.5q10 0 17 4
q26 -6 51.5 -10t51.5 -6q13 -2 26.5 -2t25.5 -3q11 -3 22 -7.5t22 -9.5q23 -10 43.5 -22t36.5 -28.5t25 -38t9 -49.5z" />
    <glyph glyph-name="t" unicode="t" horiz-adv-x="721" 
d="M874 643q-4 -13 -13 -24l-17 -21q-8 -10 -13.5 -21.5t-3.5 -26.5q-2 0 -5 0.5t-5 0.5q-16 0 -24.5 -7.5t-22.5 -12.5q-2 6 -5 11.5t-9 7.5q-24 -5 -48 -7.5t-48 -6.5q-11 -2 -22 -5.5t-23 -6.5q-6 -2 -13 -1.5t-14 -0.5q-24 -1 -52 -3.5t-50 -15.5q-10 2 -21 3t-22 1
q-24 0 -52.5 -4.5t-50.5 -17.5q-5 2 -10.5 3t-12.5 1q-2 0 -3 -0.5t-3 -0.5q-1 -9 2.5 -17.5t12.5 -13.5q-4 -11 -4 -24q0 -17 2.5 -34t2.5 -34q0 -19 -5 -30q10 -30 10 -64q0 -12 -1.5 -23.5t-1.5 -24.5q0 -11 8 -17.5t8 -17.5q0 -4 -2 -8q14 3 27 8.5t27 5.5q8 0 15.5 -3
t13.5 -8q-1 -5 -1.5 -11t-0.5 -12q0 -11 0.5 -20.5t1.5 -20.5q-8 -14 -18.5 -25t-14.5 -28q-15 0 -26.5 -6.5t-21.5 -14t-20 -14t-22 -6.5q-15 0 -21 4.5t-9 9.5t-5.5 9t-10.5 3q-2 13 -8 24.5t-12.5 22.5t-13 22.5t-9.5 23.5q-6 26 -5 54t-9 54q2 14 3 28.5t1 28.5
q0 28 -1.5 55.5t-2.5 56.5q-7 9 -8.5 20.5t-2.5 22.5q-3 3 -6.5 6t-4.5 8q-8 2 -12 2q-14 0 -23.5 -6.5t-17.5 -6.5t-15 2t-14 2q-6 0 -6.5 -2.5t-4.5 -4.5q-3 -2 -14 -4t-24.5 -3.5t-26 -2.5t-16.5 -1q-16 0 -24.5 6.5t-20.5 14.5q2 6 2 8q0 10 -6 16.5t-6 11.5
q0 11 8.5 17t9.5 19q23 10 47 15t49 8t49.5 7t48.5 13q7 -1 13.5 -1.5t13.5 -0.5q30 0 59.5 6.5t60.5 6.5q8 0 16 -1t16 -3q40 6 79.5 13t81.5 12q20 2 39.5 3.5t39.5 4.5q7 1 10.5 3.5t3.5 10.5q9 -4 20 -4q17 0 33 6t33 6q4 0 7 -0.5t6 -0.5q7 0 7.5 6.5t9.5 8.5q7 2 20 3
t27.5 2.5t27 4t18.5 7.5l7 11q18 -1 26.5 -15.5t9.5 -31.5q4 -4 11.5 -3.5t13.5 0.5h3z" />
    <glyph glyph-name="u" unicode="u" horiz-adv-x="656" 
d="M636 162q-4 -15 -13 -25t-20.5 -18t-24.5 -14.5t-25 -14.5h-13q-42 0 -64.5 20.5t-34.5 51t-17.5 65.5t-13.5 64q-12 -10 -20 -23.5t-16.5 -26.5t-19 -24t-27.5 -15q-3 -7 -6.5 -14t-4.5 -15q-22 -12 -40 -28t-36 -33t-36.5 -32.5t-41.5 -25.5q-1 1 -4 1q-12 0 -22 -5.5
t-22 -5.5q-8 0 -14.5 3t-13 7t-13.5 6t-15 1q-10 18 -26.5 33.5t-20.5 35.5q-2 9 -2.5 18.5t-2.5 19.5q-3 15 -8 30.5t-8 31.5q5 27 9.5 59.5t11 65t18 62t29.5 50.5l-1 7q0 16 6 30t13 27t12 26t2 29q12 6 25 10t27 4q13 0 24 -4q-2 -8 7 -10v-3q0 -21 -5 -41t-12 -39.5
t-13.5 -39t-9.5 -39.5q-4 -1 -5.5 -4t-2.5 -6t-3 -5t-6 -2q-6 -35 -12.5 -69.5t-6.5 -69.5q0 -21 4 -43t15 -42l4 1q11 0 17.5 -5t17.5 -10q8 2 15 5.5t6 12.5q13 1 22 6.5t16 12.5l15 14q8 7 19 10q0 6 3 9l6 6q3 3 4.5 6.5t0.5 10.5q12 1 18.5 6t12 11.5t10.5 13.5t13 12
q7 15 19.5 40t25 52t22 51.5t9.5 37.5q0 5 -2.5 9t-1.5 9v3q8 10 14.5 22t14 23t16.5 20t23 14q16 -5 32.5 -7t31.5 -8q1 -25 5 -58t14 -56q0 -13 -0.5 -25t-0.5 -24q0 -20 1.5 -41t6.5 -39q-7 -15 -7 -32q0 -23 7 -43.5t10 -43.5q13 -18 34 -18q5 0 8.5 1t7.5 3
q8 -9 14.5 -17.5t15.5 -15.5z" />
    <glyph glyph-name="v" unicode="v" horiz-adv-x="547" 
d="M562 712q0 -17 -1.5 -32.5t-6.5 -32.5q-9 -7 -16 -17l-14 -19q-7 -9 -15 -17.5t-20 -13.5q-10 -44 -24.5 -84.5t-21.5 -84.5q-12 -22 -19 -48t-14.5 -52.5t-16.5 -50.5t-25 -43q-8 -24 -16 -51.5t-27 -45.5q1 -2 1 -6q0 -12 -6 -22.5t-6 -21.5q-16 -12 -30.5 -28
t-29.5 -32t-32 -28t-37 -16q-14 10 -26 22.5t-28 20.5q-8 45 -9.5 88.5t-7.5 86.5q-4 25 -12.5 48t-8.5 47q0 5 0.5 10.5t1.5 10.5q-10 11 -13 27.5t-5 34t-5.5 34.5t-12.5 29q4 4 4 11q0 5 -1.5 10t-1.5 10q0 4 3 9q-8 10 -10.5 18.5t-3.5 17t-1.5 17.5t-2.5 19
q-2 7 -6.5 10.5t-4.5 5.5q0 5 4 8q-14 20 -23 42t-20 44q1 11 8 17t10 16h32q44 -86 67.5 -178.5t41.5 -186.5q5 -27 9.5 -54t10.5 -55q2 -6 6 -13t4 -14q0 -6 -3 -12q6 -4 9.5 -11t6 -14.5t4.5 -15t6 -13.5q12 1 21 11t16.5 23.5t14 27t15.5 21.5q1 11 4.5 21.5t3.5 21.5
q10 17 18 32t10 36q5 4 6 6.5t9 0.5q0 27 8.5 52.5t23.5 48.5q2 23 9.5 46.5t17.5 46.5q3 7 8 16.5t5 17.5q0 4 -1.5 7.5t-1.5 7.5q0 8 6 14t11 12q0 23 5 46t20 40q5 34 13 66.5t23 62.5h36q0 19 17 19q10 0 22 -5q8 -22 11.5 -49.5t3.5 -50.5z" />
    <glyph glyph-name="w" unicode="w" horiz-adv-x="905" 
d="M854 639h-4q-2 1 -4 0t-2 -3q2 -8 2 -11q0 -12 -7.5 -20.5t-7.5 -14.5q0 -3 3.5 -5t5.5 -3q-5 -6 -9 -13t-9 -12q2 -35 8.5 -68.5t6.5 -67.5q0 -17 -3.5 -33.5t-7.5 -33t-7.5 -33t-3.5 -33.5q-13 -26 -28 -49.5t-22 -51.5q-23 -14 -39.5 -34.5t-32.5 -40.5
q-35 -12 -64 -32q-5 -1 -9 -1h-8q-38 0 -65 14t-46.5 36.5t-33.5 51.5t-26 60q-23 -17 -41.5 -38.5t-37.5 -42.5q-6 -8 -14.5 -18.5t-16.5 -15.5q-4 -2 -8.5 -3.5t-9.5 -3.5q-28 -16 -44 -43q-20 -8 -38.5 -18t-35.5 -21q-19 -1 -37.5 -2.5t-36.5 -1.5q-28 0 -39.5 3.5
t-18 9t-13 13.5t-24.5 17q-5 13 -9.5 26t-12.5 24v14q0 9 -0.5 17t-3.5 14.5t-10 8.5q0 37 9 73t15 73q5 21 6 43q1 5 1 11t2 12t7 10t7 12q5 14 6 31t3 32q5 30 11.5 60t15.5 59q-1 5 -1 9v10q0 38 5.5 74t5.5 74q0 18 -3 38q5 10 11.5 18.5t17.5 13.5q21 -11 41.5 -23.5
t39.5 -27.5v-24q0 -29 -1.5 -61.5t-6 -65.5t-11.5 -64t-19 -57v-32q-18 -32 -24 -67t-14 -70q-2 -11 -8 -26t-6 -26q0 -5 1.5 -10t2.5 -10q-8 -18 -8.5 -38.5t-5.5 -40.5q8 -13 14.5 -27.5t14.5 -29.5l10 1q9 0 19 -1.5t19 -1.5q5 0 10 0.5t10 1.5q6 11 16 17.5t20.5 11.5
t20 11t15.5 17h14q2 3 7.5 8t10.5 10t8.5 10t2.5 8q12 5 20.5 13.5t16.5 18t16 18.5t19 15q-1 2 -1 5q0 9 5.5 14t2.5 18l3 -1q5 0 7 3t3.5 7t4 7.5t7.5 4.5v2q0 18 7.5 34t7.5 34q0 5 -1 9.5t-3 9.5q9 10 11.5 23t3 27t1.5 28t8 27q0 10 -7 14l12 16q6 8 14 13h2
q11 0 19.5 -5.5t16 -12t15.5 -13t18 -9.5v-22q10 -4 15 -14q-1 -27 -1.5 -54t-0.5 -53q0 -40 2 -79.5t10 -78.5q11 -11 22.5 -22t17.5 -25h12q35 0 54 22.5t27 52.5q15 7 22.5 19.5t12 27.5t8 30.5t11.5 27.5q1 12 1 24v25q0 58 -5.5 115.5t-6.5 114.5q-4 8 -6 19l-3 22
q-1 11 -4.5 20.5t-10.5 13.5q3 10 3 24q0 13 -2.5 26t-5.5 26q8 7 13 14t17 7q7 0 12.5 -4t10.5 -9t10.5 -9t13.5 -4q2 0 4.5 0.5t5.5 0.5q10 -10 16.5 -25t12 -31.5t12 -32.5t16.5 -29q0 -3 -0.5 -5.5t-0.5 -5.5q0 -9 3 -18t5 -18z" />
    <glyph glyph-name="x" unicode="x" horiz-adv-x="627" 
d="M678 761q-2 -21 -14.5 -31.5t-28.5 -21.5q-21 -31 -44.5 -60t-48 -57.5t-48 -58t-42.5 -61.5q-23 -17 -41 -37.5t-35 -42t-33.5 -44t-34.5 -42.5q6 -24 21 -38t33 -25.5t35 -24.5t26 -34q30 -5 58.5 -15.5t59.5 -10.5q23 0 44 12q9 -2 18.5 -7t20.5 -5q9 0 18 9
q2 -3 4 -7.5t7 -4.5q2 0 3.5 0.5t2.5 0.5v-16q0 -9 1 -17.5t4 -17.5q-8 0 -13 -3l-9 -6q-4 -3 -10 -5t-16 0q-6 -1 -7.5 -6t-6.5 -8q-7 -5 -18.5 -5t-20.5 -5l-34 -2q-17 -1 -34 -1q-10 0 -24 0.5t-28 2t-27 4t-22 6.5q-33 16 -64 40t-60 47l-16 14q-8 7 -17 13q-1 1 -5 1
q-5 0 -8.5 -2t-7.5 -2t-4 3q-31 -30 -58 -64l-54 -68q0 -8 4 -13l8 -9q4 -4 7.5 -9t3.5 -13q0 -6 -1 -10q-9 -3 -21 -4t-24.5 -3.5t-22.5 -7t-14 -14.5q-7 2 -12.5 4t-13.5 1q-8 10 -16.5 20.5t-15.5 22.5q-1 7 -1.5 13.5t-0.5 13.5q0 23 7 41.5t16 38.5q17 8 31.5 17.5
t19.5 28.5q13 1 21.5 8.5t16 16.5t15.5 16t22 9q0 2 -0.5 4t-0.5 4q0 7 3 10.5t7.5 6t9 4.5t7.5 7q-4 11 -8.5 21t-10.5 19q-10 15 -21 29l-22 28q-5 7 -12.5 12.5t-12.5 13.5t-6 18t-5 18q-5 10 -12.5 18.5t-7.5 21.5q0 7 3 13q-11 11 -16 26.5t-5 30.5q0 14 4 28.5
t13 26.5h9q5 0 5 3q6 -4 13.5 -7t8.5 -11q9 -1 18 -3l18 -4q16 -24 29 -49t26.5 -50t28.5 -49t34 -45q15 6 26 18t20.5 25t20.5 25t26 18q-1 1 -1 3q0 5 3.5 7.5t1.5 10.5q20 14 37 30t24 42h14q24 32 48.5 64t55.5 58v14q16 10 28 23.5t23 28t21.5 29.5t24.5 27
q10 -5 21 -7t21.5 -5t20 -7.5t16.5 -13.5z" />
    <glyph glyph-name="y" unicode="y" horiz-adv-x="547" 
d="M542 688q0 -9 -7.5 -15t-7.5 -9q0 -6 2 -8.5t2 -5.5v-5q-10 -10 -15 -21.5t-8 -24t-5.5 -25.5t-6.5 -25q-5 -12 -13 -20.5t-13 -19.5q-8 -18 -12 -37t-17 -35v-5q-1 -7 4 -12q-19 -25 -30 -59.5t-18 -72t-12 -75t-12 -67.5q5 -22 15.5 -41.5t20.5 -40.5q20 -5 38.5 -14
t26.5 -29q-2 -20 -13 -31t-27 -23q-11 4 -18 6.5t-21 0.5q-19 15 -35.5 24t-29.5 31q-2 3 -6 3h-9q-5 12 -12 25.5t-14 28t-12 29t-5 26.5q0 51 9.5 101.5t9.5 102.5v10q-20 -5 -39.5 -14t-39.5 -14q-7 -2 -8 -7t-6 -8q-10 -1 -19 -1.5t-17 -0.5q-17 0 -35.5 1.5t-36.5 6.5
t-33.5 14t-27.5 23q-2 -1 -5 -2t-6 -1t-6 1t-5 2q-8 11 -13 24l-10 26q-5 13 -11 25t-16 22q-3 18 -3 35q0 18 2.5 35t7.5 34q-4 12 -5.5 25t-1.5 26q0 15 3 31t10 29.5t19.5 22.5t30.5 9q20 0 37 -10.5t33 -21.5q2 -12 3 -23.5t1 -24.5q0 -24 -2.5 -48.5t-2.5 -49.5
q0 -26 6.5 -48.5t23.5 -42.5h4q8 1 14 -3t14 -4q7 0 11 5.5t10 5.5t9 -2t5 -2q11 0 25 8t18 18q4 -3 10 -3q8 0 15 5t18 5q6 0 4.5 7.5t3.5 9.5q12 5 26.5 14.5t23.5 11.5q5 13 12.5 24.5t15.5 21.5q3 23 12 44t19 42t19 42t12 44q11 11 17.5 24t11.5 26q10 3 25 3.5t26 0.5
h17q3 -6 8 -11l10 -10q-9 -14 -9 -28q0 -11 5 -21.5t11 -19.5z" />
    <glyph glyph-name="z" unicode="z" horiz-adv-x="805" 
d="M1153 249q-4 -17 -15.5 -26.5t-26.5 -14.5t-31.5 -7t-29.5 -3q-14 -7 -25 -15.5t-23 -16.5q-88 -11 -174 -27t-174 -27q-12 -8 -31 -10.5t-39.5 -4t-40.5 -5t-35 -12.5q-65 -3 -126 -22q-11 3 -22.5 5t-22.5 2q-8 0 -18 -1.5t-16 -9.5q-24 19 -57 14q-27 12 -47.5 30
t-31.5 46q1 16 0 24.5t-14 18.5q0 7 4.5 11t5.5 11q-4 7 -4 17q0 17 6 34.5t2 34.5q14 23 32 43.5t36.5 40t37 39.5t34.5 42q19 6 34.5 18.5t30 26.5t29.5 27t35 21q2 6 6.5 10.5t9.5 8.5t9.5 9t6.5 12h-9q-45 0 -90 -5.5t-89.5 -13t-88.5 -15.5t-89 -13q-17 -9 -37 -16
t-39.5 -14t-38 -16t-32.5 -22q-3 -1 -9 -1q-11 0 -19 4.5t-18 6.5q-2 16 -6.5 30.5t-4.5 30.5q0 13 4 22q14 0 19.5 9t16.5 16q3 -3 6 -3q5 0 9 4t10 8t14 7t21 2q30 16 56.5 20t58.5 9q8 2 11 5t7 9l21 -1q43 -2 86 5.5t85.5 16.5t86 15.5t87.5 2.5q11 5 22.5 6t23.5 1
q16 0 35 -3t35.5 -11t27 -21.5t10.5 -33.5q0 -11 -5 -20t-12 -17t-15 -15.5t-15 -14.5q-11 -12 -20.5 -25.5t-22.5 -24.5q-7 1 -10.5 -3t-10.5 -4q-13 -6 -15 -22q-27 -11 -52 -26t-41 -41q-21 -13 -39.5 -29.5t-35.5 -34.5t-33.5 -36.5t-34.5 -35.5q-2 -15 -7 -28t-11 -27
q0 -11 7 -19t7 -21q25 -5 49.5 -7.5t50.5 -2.5q25 0 50 3.5t47 14.5q15 -4 31 -4q22 0 42.5 4.5t41.5 3.5q25 9 51.5 12.5t52.5 6t52.5 6.5t51.5 15q14 -3 26 -1t26 2q10 0 24 -6q16 8 33.5 14t35.5 6q7 0 14 -1t13 -4q2 1 10 4t17 6t17 5.5t10 2.5q8 0 7.5 -4.5t4.5 -4.5
q17 0 33 6.5t33 6.5q7 0 13 -1t14 -3q4 -6 7 -12.5t10 -8.5z" />
    <glyph glyph-name="braceleft" unicode="{" horiz-adv-x="530" 
d="M653 -307q0 -10 -5 -14.5t-12 -6.5t-15 -2h-15q-10 0 -17 -3t-12 -12q-6 6 -12 6q-9 0 -17.5 -4.5t-18.5 -4.5q-5 0 -7 1.5t-7 1.5q-3 0 -8 -4t-9 -6q-7 -2 -13 -2h-12q-8 0 -15.5 -1.5t-14.5 -8.5l-9 1q-24 0 -47 -4.5t-47 -4.5q-6 0 -12 0.5t-13 0.5q-5 0 -9 -1t-6 -6
q-19 8 -39 10l-40 4q-12 12 -21.5 23t-28.5 13q-8 19 -15.5 37t-16.5 35q1 5 1 9v8q0 29 -12 55q8 27 18 56.5t11 58.5q10 12 16.5 28.5t10.5 34.5l9 36q5 18 11 33q-5 14 -16 24t-24.5 16.5t-29 10.5t-28.5 7q-10 2 -9.5 7t-4.5 11l-6 -1q-13 0 -20.5 4.5t-13.5 11.5
t-12.5 13.5t-15.5 10.5q0 7 0.5 13.5t0.5 12.5q0 5 -0.5 9t-4.5 8q16 42 47.5 67t71.5 41q9 14 20.5 24.5t18.5 25.5q-9 44 -17 88.5t-8 89.5q0 4 4.5 4.5t6.5 0.5q0 19 5.5 44t19.5 39q-1 1 -1 5q0 5 1.5 10t3.5 10q6 4 9.5 11t6 14.5t6 14t10.5 10.5q-2 4 -2 12t1 15.5
t1 15.5q17 5 24 20.5t12 29.5q13 12 22 28t18 31.5t21 28.5t32 20q2 12 9 20t13 19q21 12 44.5 27t49.5 15q8 0 16 -3q9 3 17 3q17 0 34.5 -6.5t34.5 -6.5q5 -10 6 -22.5t6 -20.5q-1 -6 -5.5 -10t-9 -7t-9 -6.5t-5.5 -9.5q-41 -5 -70 -21.5t-51.5 -40t-42 -52t-41.5 -58.5
l-4 -14q-1 -6 1 -14q-23 -15 -36.5 -39.5t-22.5 -53.5t-15 -58.5t-12 -53.5q7 -20 17 -40t33 -25q5 -26 8.5 -53t9.5 -54q-32 -25 -64.5 -50t-60.5 -54q11 -14 29 -20.5t35 -11.5q6 4 14.5 7t10.5 11q16 -6 24 -16.5t14 -23.5t13 -25t21 -21v-6q0 -26 -7 -51t-25 -43
q0 -2 0.5 -4.5t0.5 -5.5q0 -7 -3.5 -12t-7 -10.5t-7 -12.5t-3.5 -16q0 -8 1 -11q-9 -9 -14.5 -21.5t-10 -25.5t-9.5 -26.5t-12 -23.5v-14q0 -19 -3 -38t-8 -38q2 -9 8.5 -14t14 -9.5t14.5 -9.5t10 -13q11 -2 23.5 -3t24.5 -1q39 0 78 6.5t78 6.5q30 0 57 -6q14 6 27.5 8.5
t27.5 5.5q8 -12 20.5 -22t12.5 -26z" />
    <glyph glyph-name="bar" unicode="|" horiz-adv-x="305" 
d="M105 -205q-12 1 -28.5 4.5t-24.5 11.5q-15 17 -18.5 42t-2.5 45q1 25 4 48.5t4 47.5q1 15 0 30t0 30q0 35 10 66q-2 7 0.5 17.5t-2.5 14.5q13 33 16.5 68t5 70.5t3.5 71t13 69.5q-1 6 -1 12v14q1 17 5 34.5t6 36.5q1 6 0.5 12.5t-0.5 14.5q2 43 7 85t7 85q1 23 -2.5 44.5
t-2.5 43.5q1 10 2.5 19.5t6.5 17.5q11 8 24.5 11t26.5 3q11 -1 20.5 -3.5t17.5 -10.5v-6q-1 -5 0 -9t1 -9q0 -3 -2 -7q8 -13 10 -26.5t1 -27.5q0 -13 -1.5 -25.5t-1.5 -25.5q-1 -18 -1 -36v-36q-2 -48 -8.5 -94.5t-10.5 -94.5q-3 -42 -13.5 -82.5t-12.5 -81.5q0 -8 -0.5 -29
t-0.5 -43.5t0.5 -42t2.5 -25.5q-6 -17 -10 -38.5t-6 -44.5t-3 -45.5t-2 -40.5q-1 -17 -7 -33.5t-6 -34.5q0 -11 3.5 -18.5t7.5 -15t7.5 -16t3.5 -21.5q-1 -21 -14.5 -34t-33.5 -12z" />
    <glyph glyph-name="braceright" unicode="}" horiz-adv-x="612" 
d="M530 361q-15 -42 -47 -66.5t-71 -40.5q-10 -13 -21.5 -24t-18.5 -26q9 -45 17 -88.5t8 -88.5q0 -5 -4 -6t-7 1q1 -20 -5 -44.5t-20 -38.5v-7q0 -5 -1.5 -9t-2.5 -9q-6 -5 -9 -11.5t-6 -14t-6.5 -14t-9.5 -10.5q2 -8 2 -12q0 -8 -1.5 -15.5t-0.5 -15.5q-17 -6 -24 -21
t-12 -30q-14 -12 -23 -28t-18 -31.5t-20.5 -28.5t-31.5 -20q-3 -11 -10 -20t-12 -19q-28 -16 -49.5 -28t-54.5 -15q-10 -2 -15 -4q-20 1 -38.5 9.5t-40.5 8.5q-4 11 -4.5 22.5t-5.5 21.5q1 6 5 9.5t9 6t9 6t6 9.5q40 6 69 22.5t52 39.5t42.5 52t40.5 59q2 8 3.5 14.5
t0.5 14.5q22 15 35.5 39.5t22.5 53t15 58t13 53.5q-8 20 -17.5 39.5t-32.5 24.5q-7 27 -9.5 54.5t-9.5 53.5q32 25 64.5 49.5t61.5 54.5q-11 15 -29 21.5t-35 10.5l-16 -6q-8 -3 -10 -11q-16 6 -24 16.5t-14 23.5t-13 25t-21 21v5q0 26 7.5 50.5t25.5 44.5q-1 3 -1 9
q0 7 3 12l7 11q4 6 7.5 12.5t3.5 15.5q0 4 -2 12q9 9 14.5 21t10 25.5t9.5 26.5t13 24q0 3 -0.5 6t-0.5 6q0 20 3.5 38.5t7.5 38.5q-2 9 -8.5 14.5t-14 10t-14 9t-9.5 13.5q-26 3 -49 3q-40 0 -78.5 -6.5t-77.5 -6.5q-29 0 -57 6q-14 -5 -27 -7.5t-27 -6.5q-8 12 -20.5 22
t-12.5 27q0 9 5 13.5t12 6t15 1.5h14q10 0 17.5 3t12.5 13q3 -5 12 -5q8 0 16.5 4.5t17.5 4.5q6 0 8.5 -2t6.5 -2q3 0 8 4.5t10 6.5t12 1.5t13 -0.5q8 0 15.5 1.5t12.5 7.5h6q26 0 52.5 4.5t53.5 4.5q6 0 12 -0.5t13 -1.5q3 2 7 3t7 1q19 0 36 -6.5t36 -4.5q12 -11 22 -22
t28 -14q8 -17 15.5 -35.5t17.5 -35.5q-2 -10 -2 -17q0 -14 3.5 -28.5t8.5 -26.5q-8 -27 -17.5 -56.5t-11.5 -58.5q-10 -12 -16.5 -28.5t-11 -34.5t-8.5 -36.5t-10 -33.5q5 -14 16 -23.5t24.5 -16.5t28 -11t27.5 -6q11 -2 10.5 -7t5.5 -11h5q13 0 21 -4.5t14 -11t12 -13.5
t15 -11q1 -6 0.5 -12t-0.5 -13q0 -4 0.5 -8.5t3.5 -9.5z" />
    <glyph glyph-name="asciitilde" unicode="~" horiz-adv-x="1120" 
d="M1049 401q-21 -21 -45.5 -37.5t-50 -31.5t-50.5 -30.5t-48 -33.5q-24 -5 -46.5 -12.5t-46.5 -11.5q-7 -5 -15 -7.5t-14 -7.5q-16 0 -30.5 -4.5t-28.5 -7.5l-21 -2q-8 -1 -15 -8.5t-16 -9.5q-5 1 -10 1.5t-10 0.5q-17 0 -33.5 -4.5t-33.5 -4.5q-28 0 -43.5 9.5t-26 24
t-21 30.5t-27.5 29q-15 -3 -30 -4.5t-31 -2.5q-7 0 -14.5 0.5t-13.5 -1.5q-7 -2 -13.5 -6t-13.5 -8.5t-15 -8t-17 -3.5t-17 5l-22 -29q-26 -5 -46.5 -19t-39.5 -34h-3q-12 0 -23 -5t-23 -11t-24.5 -11t-26.5 -6q-29 17 -29 48q0 17 5 34t10 33q19 9 39 12.5t40 8.5
q18 18 39.5 31.5t43.5 24.5l45 23q23 12 44 26q14 1 32.5 2.5t37.5 4.5t36.5 8t29.5 14q52 -12 104 -33q4 -14 12 -24.5t13 -21.5q15 -3 29 -3q17 0 33 3l66 14q17 4 34 4q5 0 9 -0.5t9 -0.5q6 0 16.5 7t15.5 12q23 3 45 9.5t45 14.5h8q18 0 31.5 5.5t25 13t23 14.5t27.5 10
l4 12q2 6 6 10q7 -1 13 -1h14q8 0 15.5 0.5t14.5 0.5q6 -13 10 -26.5t9 -27.5z" />
    <glyph glyph-name="uni00A0" unicode="&#xa0;" horiz-adv-x="420" 
 />
    <glyph glyph-name="exclamdown" unicode="&#xa1;" horiz-adv-x="335" 
d="M222 121q0 -21 -4 -30.5t-12 -25.5q1 -5 1 -13q0 -14 -4.5 -28t-3.5 -28q-12 -23 -19.5 -48t-14.5 -50t-15 -49.5t-23 -46.5q0 -15 -4.5 -29.5t-4.5 -29.5v-8q0 -4 2 -8q-11 -14 -13.5 -34.5t-1.5 -37.5q-5 -11 -7 -23t-7 -23q1 -4 1 -8v-9q0 -23 -5 -45.5t-5 -45.5
q0 -28 16 -47q2 -10 2 -17q0 -18 -6.5 -34t-5.5 -35q-9 -5 -19.5 -9t-21.5 -4q-12 0 -22 5t-19 12.5t-17 16t-16 15.5q-4 15 -4 34q0 20 3 41t3 43q0 6 -0.5 12.5t-1.5 12.5q11 39 15 79t12 79q2 14 4.5 28t7.5 27l11 28q2 8 3.5 17.5t3.5 17.5q4 17 8.5 33.5t9.5 32.5
q10 30 21 59.5t20 60t15 61t6 62.5q0 5 -5.5 9.5t-13 8.5t-14.5 7.5t-10 7.5q-1 2 -1 8q0 15 5.5 23.5t14 15t17 12.5t14.5 16q6 -3 13 -3q11 0 20.5 5t19.5 5q12 0 19.5 -10t16.5 -15q1 -26 8.5 -50.5t7.5 -50.5zM174 546q0 -20 -7.5 -30.5t-16 -17t-16 -13.5t-7.5 -19
q-3 -1 -10 -1q-16 0 -23.5 9.5t-16.5 20.5q-5 6 -12.5 11.5t-14.5 11.5t-11.5 13.5t-4.5 16.5q0 5 1 9t3 9q13 4 26.5 7t26.5 8q9 9 15.5 19t20.5 12q23 -7 35 -25.5t12 -40.5z" />
    <glyph glyph-name="cent" unicode="&#xa2;" horiz-adv-x="771" 
d="M720 184q0 -13 -11.5 -23t-16.5 -22q-6 2 -11 2q-6 0 -12 -1t-13 -1q-6 -6 -15.5 -8.5t-19.5 -4t-19.5 -4t-16.5 -7.5q-35 -2 -72 -9t-72 -17q-5 -32 -8 -64t-3 -64q0 -26 1.5 -51.5t6.5 -49.5q2 -13 12 -25.5t10 -21.5q0 -11 -8 -16t-18 -9.5t-18.5 -10.5t-9.5 -18
q-9 6 -15 12l-11 11q-5 5 -12.5 9t-19.5 7q-5 53 -10.5 104.5t-5.5 103.5q0 16 0.5 31t1.5 31q-9 0 -18.5 0.5t-18.5 0.5q-12 0 -31 -1.5t-28 -10.5h-22q-20 0 -38 -1.5t-38 -1.5q-41 0 -68.5 16t-45 42t-26 59.5t-10.5 68.5q19 45 45 87t59 77q9 10 20 17t19 16
q11 13 19.5 24.5t27.5 14.5q44 57 97.5 102t113.5 81q7 68 9 135t10 135q17 14 39 14q8 0 20 -2t19 -5q5 -2 7 -6l5 -7q3 -3 6.5 -5t10.5 0q6 -24 6 -49q0 -38 -8.5 -74.5t-8.5 -74.5v-10q10 3 21 4t21 1t23 -1.5t24 -6.5t19 -13.5t8 -21.5q0 -9 -4 -14.5t-8.5 -10.5t-8 -10
t-3.5 -11q0 -9 5 -17q-7 -13 -17.5 -19t-23.5 -8t-26.5 -1.5t-25.5 0.5q-8 -9 -13 -20t-13 -19q0 -11 0.5 -20t0.5 -19q0 -17 -2 -28.5t-9 -27.5q-1 -1 -1 -4q0 -5 3 -7t5 -6q-9 -18 -13 -41.5t-5.5 -48t-2.5 -48.5t-4 -45q-2 -11 -4 -20.5t-2 -19.5q0 -15 6 -25h9q9 0 18 3
t19 3q9 0 15 -6q8 6 20 9t22 3q13 0 23 -5q17 10 38.5 14t41.5 4q14 0 28.5 -2.5t27.5 -10.5q2 -8 2 -10zM374 516h-12q-14 -15 -30.5 -27.5t-32.5 -25.5t-31 -27t-27 -32q-8 2 -11 -2.5t-11 -4.5q-12 -14 -25 -28t-25 -29q-10 -13 -23 -26t-24 -27t-19 -29.5t-8 -33.5
q0 -8 2 -17l4 -18q22 -17 48.5 -27t54.5 -10q20 0 41 6q11 -7 28 -7q20 0 38.5 6.5t36.5 10.5v13q0 29 6 58t6 58q0 9 -1 18.5t-4 17.5q8 18 11.5 41.5t4.5 48t1 49t2 44.5z" />
    <glyph glyph-name="sterling" unicode="&#xa3;" horiz-adv-x="948" 
d="M938 -7q0 -9 -3 -19q-12 -12 -23.5 -25.5t-22.5 -27.5q-21 -2 -40 -7.5t-39 -10.5q-7 -11 -17.5 -17t-22.5 -11t-24.5 -10t-21.5 -12q-6 2 -12.5 4t-14.5 2q-11 0 -21 -4t-21 -10q-31 17 -66 31.5t-70 19.5q-5 1 -11 0.5t-12 -0.5q-10 0 -22 1.5t-19 9.5
q-51 -15 -102.5 -23.5t-103.5 -14.5q-14 -2 -36 -5.5t-35 -3.5q-8 0 -15 5t-15 5q-5 0 -9 -3q-11 5 -16 14.5t-17 14.5q-1 10 -1.5 19t-0.5 19v15q0 7 2 15q8 3 12 8.5t7 13.5q15 2 25.5 9t19 15.5t17 17.5t20.5 15q3 15 11 25t16 19.5t15 20.5t8 28q11 6 17 18t9.5 26t6 28
t7.5 24q-4 16 -3 32t-8 30q-26 -1 -51 -7.5t-49.5 -13.5t-50 -12.5t-51.5 -5.5q-18 0 -35 4t-32 13q-7 15 -7 33q0 17 7.5 32.5t22.5 24.5q2 2 6.5 4.5t6.5 2.5q4 1 9 0.5t10 0.5q11 0 22 1.5t22 3.5q35 5 69 12t69 10v4q0 14 -6.5 19.5t-11.5 16.5q2 5 2 10v10q0 23 -8 44
t-8 44q0 10 3 21q-8 11 -9 24t-9 23q5 14 4.5 28t-0.5 28q0 15 2 26t8 26q1 1 1 4q0 5 -2 8.5t-2 8.5q0 6 7 19t16 27.5t18 28t12 19.5q19 6 32.5 18t25.5 28q7 1 16.5 5t18.5 8l16 8q7 4 10 4q5 0 5 -4.5t5 -6.5l26 26h6q6 0 11.5 -1t11.5 -3q3 8 10 9.5t15 1.5h14
q7 -2 6.5 -3.5t4.5 -3.5t14.5 -1.5t16.5 0.5q11 0 23 -3q7 -9 16.5 -16t19 -13t18 -13.5t14.5 -18.5q-4 -24 -7.5 -47t-10.5 -46q-4 -1 -8 -1h-6q-20 0 -38 3.5t-38 4.5q-1 12 -9.5 18.5t-11.5 17.5q-17 -1 -33 -6t-32 -10.5t-31.5 -11t-32.5 -8.5q-26 -28 -35.5 -65
t-9.5 -73q0 -51 14 -108t38 -102q5 -1 11 -1h11q35 0 68 6.5t68 11.5q2 1 5 1t6.5 -0.5t6.5 -0.5h7q8 2 16.5 2.5t17.5 0.5q40 0 79 9.5t81 9.5q6 0 12 -3.5t5 -11.5q9 12 26 12q14 0 26.5 -3t26.5 -3h10q6 0 11 2q3 -5 6 -10.5t3 -11.5q0 -12 -16 -22.5t-37.5 -18
t-42.5 -12t-31 -4.5q-14 0 -25 4q-8 -1 -11.5 -5.5t-9.5 -8.5q-4 1 -10 1q-12 0 -23.5 -5.5t-24.5 -7.5q-10 -2 -23 -3l-25 -1q-12 0 -24 -2t-21 -8q-43 -2 -82 -9t-80 -23q5 -7 6.5 -16t1.5 -20v-21q0 -10 3 -19q-16 -58 -41 -113t-56 -109q4 -3 11 -3.5t14 -0.5t13 -1
t9 -5q11 5 25.5 8t20.5 14q36 3 69 3h18q12 0 24.5 -0.5t24 -1t16.5 -1.5q10 -3 21 -9.5t21 -11.5q28 -14 57 -26t61 -12q12 0 23 3t21.5 7t21 7t21.5 2q13 11 29.5 15.5t27.5 16.5q3 -1 6 -1h7q9 0 17 1t16 1q16 0 33 -5q3 -9 3 -17z" />
    <glyph glyph-name="currency" unicode="&#xa4;" horiz-adv-x="755" 
d="M724 771q-2 -21 -14 -31.5t-29 -21.5q-26 -39 -57 -75.5t-61 -72.5q4 -14 6.5 -29t2.5 -30q0 -55 -22 -106t-51 -96q-6 -9 -12 -19t-14 -19q-4 -5 -10 -9t-11 -8l-23 -17q13 -9 23.5 -19t16.5 -24q30 -6 58.5 -16.5t59.5 -10.5q24 0 44 12q9 -2 19 -7t20 -5q9 0 18 9
q2 -3 4.5 -7.5t7.5 -4.5q2 0 3.5 0.5t2.5 0.5v-15q0 -20 4 -35q-8 0 -12.5 -3t-9 -6.5t-10.5 -5.5t-15 0q-7 -1 -8.5 -6t-6.5 -8q-7 -5 -18 -5t-21 -5q-17 -1 -34 -1.5t-34 -0.5q-10 0 -24 0.5t-28 2t-27 3.5t-22 6q-32 14 -60.5 36t-55.5 45q-19 -11 -30 -25
q-32 -11 -63.5 -23t-63.5 -24q-5 -6 -10 -13t-10 -13q0 -8 -3 -13t-6.5 -9t-7 -9t-3.5 -13q0 -7 -1 -11q-8 -3 -20.5 -4t-24.5 -3.5t-22.5 -7t-14.5 -13.5q-7 2 -12.5 3.5t-12.5 0.5q-5 5 -3.5 10t3.5 10.5t3.5 11t-1.5 11.5q-1 7 2 13.5t3 13.5q0 23 7 41.5t16 38.5l3 1
q-9 15 -23 30q-3 15 -3 30q0 25 7.5 45.5t16.5 43.5q6 0 8.5 4t4 8.5t4 8.5t8.5 3q8 20 17.5 40.5t22.5 37.5l-1 3q-5 8 -5.5 18t-4.5 18q-5 10 -13 19t-8 21q0 7 3 13q-11 11 -15.5 26.5t-4.5 31.5q0 14 3.5 28.5t12.5 25.5h9q5 0 5 3q7 -4 14 -6.5t8 -10.5q16 -1 36 -8
q11 -17 20.5 -35t20.5 -35q13 14 27 27.5t22 33.5q21 15 40.5 31t35.5 38q6 -2 10 -2q13 0 25 6t25 6q17 0 33 -4.5t34 -4.5h7q4 0 9 2q13 -5 32 -10q25 32 53 55v14q16 10 28 23.5t23 28t21.5 29.5t24.5 27q10 -5 21 -7t21.5 -4.5t20 -7t16.5 -14.5zM472 488q0 19 -6 34
h-10v-7q0 -25 -19.5 -36t-40.5 -11q-8 0 -12 1q-5 10 -14 16t-19 13q-29 -14 -49 -36.5t-37 -47.5t-35 -49.5t-43 -42.5q-5 -20 -15.5 -34t-20.5 -31q1 -2 2 -5t1 -6q0 -10 -8 -16.5t-7 -19.5q17 -5 28 -5q18 0 34 8t32 17.5t32.5 18.5t35.5 12q14 17 28 28.5t37 14.5
q8 16 21 28t29 22q7 16 16.5 32t18.5 32.5t15 33.5t6 36z" />
    <glyph glyph-name="yen" unicode="&#xa5;" horiz-adv-x="912" 
d="M871 349q0 -14 -10 -26t-10 -27q0 -7 3 -13q-16 2 -33 3t-34 1q-35 0 -69 -2t-69 -2q-4 0 -10.5 2.5t-10.5 4.5q-18 -11 -38.5 -14t-41.5 -4t-40 -3.5t-34 -14.5v-11q0 -9 -1.5 -18t-9.5 -14q3 -9 3 -21q0 -18 -5.5 -36t-5.5 -36v-7q0 -3 1 -8h5q12 0 24.5 -3.5
t25.5 -3.5q23 0 44.5 7t44.5 7t33 -12.5t13 -32.5q-3 -3 -8 -5.5t-9.5 -4.5t-7 -6t-0.5 -10q-23 -8 -46 -13t-46.5 -9.5t-46 -11t-44.5 -16.5q-3 -10 -5 -19.5t-2 -19.5q0 -15 5.5 -27.5t19.5 -19.5q-9 -9 -9 -19q0 -13 8.5 -26.5t8.5 -29.5q0 -5 -1 -9t-3 -9q2 -4 6 -5.5
t7.5 -3t7 -3.5t3.5 -7q-8 -17 -17 -33t-14 -34q-10 -1 -16.5 -6t-12.5 -10.5t-12.5 -10.5t-16.5 -6q-7 3 -11.5 7.5t-9 9.5t-9.5 9.5t-13 6.5q-6 17 -10.5 36.5t-14.5 34.5q7 24 7 51q0 29 -5 59t-2 59q-2 3 -4 4.5t-4 5.5h-7q-3 0 -7 0.5t-7 3.5q-6 -2 -9.5 -6t-7.5 -8
q-24 -4 -48 -10.5t-47.5 -13t-47 -12t-48.5 -7.5q-9 3 -14.5 10t-9 16t-7 18.5t-9.5 16.5q4 19 17 32.5t30 21.5h4q4 0 7 -2t7 -2h4q28 6 55 12.5t56 5.5q25 9 51 16t53 9q10 29 14.5 60t9.5 62q2 5 3 12t1 13q0 5 -4.5 7t-5.5 8q-15 -3 -34.5 -4.5t-39 -4t-37 -7
t-29.5 -13.5q-3 0 -5.5 0.5t-5.5 0.5q-17 0 -35 -6.5t-26 -23.5q-8 2 -13 2q-9 0 -16.5 -3.5t-15.5 -7t-16.5 -7t-19.5 -3.5q-8 0 -12 1q-4 8 -6 18.5t-14 10.5q-7 0 -9 -1q-3 13 -3 25q0 18 6 35.5t19 30.5q21 1 41.5 7t40.5 12t41 11t42 5q14 7 31.5 9.5t34.5 6t32 9.5
t24 21q8 0 10 -7t10 -7h5q5 7 9 16t4 17q0 23 -16 41t-37 23q-12 29 -29 54.5t-34 52.5q-8 14 -14.5 27.5t-11.5 27.5q-3 6 -8 8t-10 7v14q-22 30 -38 64t-37 65q-8 5 -13.5 10.5t-16.5 6.5q0 17 -7 30.5t-7 30.5q0 5 2 10.5t2 10.5q0 10 -6.5 13.5t-6.5 9.5q0 4 3 7
q11 2 22 6t17 15q21 -2 44 -4.5t42 -13.5q16 -30 30 -56.5t20 -61.5q8 -5 12 -10.5t14 -7.5q6 -25 17.5 -47t23.5 -44q5 -10 8 -20t8 -18q2 -5 7 -11t8 -11q17 -22 34.5 -43.5t43.5 -35.5q28 27 46.5 60.5t32.5 68.5q12 3 18.5 11t12.5 16.5t13 15.5t20 8q12 25 31.5 44
t40 37t40 37t32.5 43q-7 17 -5.5 36t-5.5 36q7 0 10 -2.5t8 -4.5q9 15 24.5 23.5t33.5 8.5q34 0 54.5 -24t20.5 -56q0 -11 -3 -16t-6 -9t-5 -8t0 -12q-5 -5 -11 -7t-11 -5q-23 -25 -47 -49t-50 -47q-8 -21 -21 -37.5t-33 -26.5q1 -2 1 -5q0 -6 -3 -11t-1 -10q-10 -5 -18 -10
t-18 -7q-30 -47 -54 -96t-54 -95q-8 0 -11.5 -5t-13.5 -2q-8 -12 -8.5 -26t-2.5 -28q45 2 89.5 3.5t89.5 1.5q22 0 48 0.5t46 -8.5q5 1 10.5 1.5t10.5 0.5q23 0 44 -7.5t42 -6.5q3 -6 3 -12z" />
    <glyph glyph-name="brokenbar" unicode="&#xa6;" horiz-adv-x="336" 
d="M175 -179q-3 -18 -13.5 -28t-24 -14t-29 -4.5t-30.5 0.5q-3 4 -9.5 9.5t-12.5 11.5l-12 12q-5 5 -6 10q-1 4 -1 9.5t-1 9.5q-6 42 -5.5 82.5t1.5 82.5q3 7 10 19.5t8 18.5t0 13.5t-1 13.5v26q0 13 1 26q3 30 10 65.5t22 61.5q8 2 16 3.5t16 0.5q16 -1 31 -9.5t28 -16.5
q2 -14 7 -26t7 -26q-4 -8 -6.5 -17t-7.5 -17q1 -21 0 -43q-4 -42 -13.5 -81.5t-12.5 -80.5q-3 -31 2.5 -60t25.5 -52zM244 720q-5 -2 -9 -4t-6 -6q4 -28 1 -59q-2 -20 -4.5 -39.5t-4.5 -39.5q-1 -10 -1.5 -20t1.5 -21q-8 -2 -13.5 -9.5t-6.5 -15.5q0 -12 9 -17
q-6 -11 -14.5 -18.5t-17 -14t-16.5 -14.5t-12 -20q-2 1 -5 2t-5 1q-5 1 -10 -1t-10 -2l-9 3q-20 38 -19 83.5t5 86.5q0 5 -5.5 5t-5.5 7q1 4 6 14.5t8 13.5q-2 4 -2 8v9q2 23 13 45t13 51q1 8 -4 11.5t-5 10.5q7 17 8 35t3 35q2 20 6.5 37t19.5 31q6 1 12 1h15q25 -3 44 -14
q11 -44 15 -87t6 -88z" />
    <glyph glyph-name="section" unicode="&#xa7;" horiz-adv-x="1198" 
d="M1085 65q0 -8 -2 -14.5t0 -14.5q-4 -4 -14 -4q-5 -38 -25 -65.5t-53 -47.5q-7 -5 -14 -8t-15 -8q-6 -4 -11.5 -10.5t-10.5 -11.5q-36 -12 -72 -28.5t-67 -39.5q-3 1 -7 1q-8 0 -13 -5t-13 -4q-6 -5 -14 -8l-15 -6q-7 -3 -14 -7t-11 -10q-5 3 -13 3t-14.5 -4t-13 -8.5
t-14.5 -8t-20 -1.5q-6 -7 -14 -10.5t-16.5 -5.5t-16.5 -4.5t-14 -7.5q-4 -3 -5.5 -7.5t-5.5 -7.5q-3 -2 -13 -2t-15 -1q-18 -4 -34.5 -11.5t-34.5 -13.5h-10q-18 -10 -29.5 -25t-20.5 -33q-16 -4 -30 -9t-31 -5t-25 9.5t-8 26.5q-9 0 -14 5t-9 12l-7 13q-3 6 -10 10
q7 12 15 23t14 23q38 15 77 26.5t78 24.5t77 28t73 36h18q5 4 7 11q47 11 101 33t97 46q2 1 2.5 2t2.5 1t3 -1.5t6 -1.5q14 10 30.5 18.5t32.5 18t30.5 20.5t25.5 26q-17 9 -38.5 14t-44 7.5t-45 3.5t-41.5 3q-5 4 -12.5 5.5t-14.5 1.5q-17 0 -31 -7q-16 7 -35 10t-36 3
q-11 0 -22 -1t-21 -5q-25 13 -54 13q-17 0 -40 -5q-8 8 -17.5 11.5t-20.5 5t-22.5 2t-21.5 2.5q-31 5 -51.5 21t-45.5 32q-17 26 -28.5 53t-11.5 59v10q9 4 14 11.5t8 17t5.5 19t5.5 17.5q45 38 87.5 79t87.5 78q-64 14 -128 14.5t-130 0.5q-6 0 -14.5 2.5t-15.5 4.5
q-18 3 -37.5 7.5t-37.5 11.5t-34.5 17t-28.5 25q-7 23 -16 44t-17 42q12 25 30 44t39.5 33.5t46 24t49.5 17.5q32 28 67.5 43t73.5 32q8 4 11 10t10 11h18q32 15 60.5 32.5t57 33.5t59 29t66.5 20q6 8 16 13.5t20 5.5q7 0 14 -5q16 17 37 17q12 0 23.5 -2.5t22.5 -2.5
q10 0 19 3q13 -3 21 -9.5t25 -5.5q6 -17 9 -33.5t5 -33.5q-5 -4 -10 -12t-11 -15.5t-12 -13.5t-13 -6q-10 0 -14 5.5t-11 8.5q-4 -1 -4 -5v-5q-8 2 -11 9.5t-11 7.5q-16 0 -31.5 -4t-31 -8.5t-31 -8t-31.5 -3.5q-23 -12 -46 -22.5t-47 -18.5q-12 -5 -25 -7t-25 -7
q-8 -2 -16 -7t-16 -9q-18 -9 -35.5 -17t-37.5 -13q-24 -20 -51.5 -34.5t-55.5 -29t-55 -31t-49 -38.5q8 -20 29.5 -30.5t43.5 -10.5q15 0 28 5q5 -5 12.5 -7t15.5 -3.5t16 -3.5t13 -7q25 5 47 5q13 0 26.5 -1.5t26.5 -6.5h27q52 0 102 -3.5t102 -3.5q30 0 60.5 -3t60.5 -5
q19 -1 39.5 -1.5t38.5 -5.5q8 -2 13.5 -7t12.5 -7q6 -2 13 -2h16q10 0 15 -2t8 -4.5t5 -4.5t6 -2q5 0 8 0.5t6 0.5q6 0 13.5 -4.5t16 -9.5t17.5 -10t19 -6q7 -17 7 -39q0 -17 -2 -32.5t-2 -32.5q0 -8 -9.5 -21t-11.5 -26q-21 -10 -29.5 -23t-20.5 -23q-3 -2 -7.5 -3.5
t-7.5 -3.5q-16 -8 -33 -16t-27 -24q-13 1 -20 0.5t-11.5 -2t-9 -5.5t-13.5 -10h-18q-50 -22 -102 -35.5t-103 -33.5q4 -10 14 -10h18q6 0 12 -1t10 -6q18 3 38 3q18 0 36.5 -2t36.5 -2t33 4q2 -3 6 -5.5t8 -4.5q10 2 15 2q13 0 25.5 -4.5t25.5 -4.5q4 0 7.5 1t7.5 1
q8 0 8.5 -5t11.5 -5h12q31 0 62 -9.5t58 -23.5v-6q0 -10 7 -12.5t14 -5.5q1 -4 1.5 -7t0.5 -7zM944 419q-14 3 -26.5 9.5t-24.5 12.5t-25 11t-28 5h-10q-4 0 -8 -2q-6 8 -16.5 11.5t-23.5 5t-25.5 2t-21.5 2.5q-4 -9 -10.5 -16.5t-13.5 -15.5q-11 -3 -20 -8t-17 -11
t-17.5 -10.5t-21.5 -5.5q-3 -6 -10 -12t-14.5 -11t-15 -9.5t-13.5 -7.5q-8 -2 -14.5 -4.5t-13.5 -6.5q-33 -17 -56.5 -43t-48.5 -50q-6 -22 -18 -43q5 -4 8.5 -9.5t9.5 -8.5q4 22 21.5 30.5t35.5 16.5q4 -1 12 -1q13 0 25 3.5t22.5 8t20.5 8.5t20 4t15 -2q11 13 24 13
q5 0 11 -2q20 16 47.5 23.5t56 13.5t55 14.5t43.5 26.5q11 3 23 8t20 14h18q6 9 12 18.5t13 17.5z" />
    <glyph glyph-name="dieresis" unicode="&#xa8;" horiz-adv-x="623" 
d="M164 916q0 -16 -5.5 -31.5t-16.5 -26.5q0 -1 -0.5 -2t-0.5 -2q0 -5 5 -7.5t4 -7.5v-2q-5 -8 -13 -10t-9 -12q-17 4 -32.5 10t-33.5 6h-8q-4 0 -9 -2q-1 14 -8 23t-15.5 17t-15 16.5t-6.5 21.5q0 6 2 16q14 11 23.5 24.5t16.5 29.5h3q13 0 18 8t11 16q5 1 9 2.5t9 1.5
q6 0 8 -4.5t2 -9.5q6 -2 9 -2t6.5 1t6.5 1q21 -10 30.5 -31.5t9.5 -43.5zM623 951q-4 -8 -8 -15.5t-4 -16.5t4 -14q-11 -18 -22.5 -31.5t-15.5 -36.5q-5 2 -8.5 4t-8.5 2t-8.5 -2t-7.5 -4q-4 4 -8.5 7.5t-9.5 6.5q-4 -2 -7.5 -4t-8.5 -2q-9 0 -17.5 4t-17.5 4q-2 0 -10 -2
q0 2 0.5 4.5t0.5 4.5q0 20 -7.5 38.5t-7.5 39.5v3q5 2 9.5 7.5t10.5 5.5q5 0 8 -3q2 9 7 13t11 6.5t12.5 4t12.5 5.5q4 3 5.5 5t3 3.5t4 2t9.5 0.5q11 0 21 -5t19 -12l19 -13q10 -6 20 -10z" />
    <glyph glyph-name="copyright" unicode="&#xa9;" horiz-adv-x="1612" 
d="M1468 439q-10 -22 -10 -42q0 -6 1 -11.5t5 -10.5q-4 -14 -8.5 -28t-4.5 -28q0 -5 0.5 -8.5t2.5 -7.5q-11 -24 -18 -49t-11 -51q-14 -13 -24.5 -29t-21.5 -31.5t-24 -29t-31 -21.5q-3 -8 -5.5 -16t-4.5 -17q-4 2 -7 2q-7 0 -11 -7.5t-8 -12.5q-14 0 -23 -6t-23 -8
q-24 -23 -49 -40t-58 -25q-10 -9 -22.5 -15t-26.5 -11l-27 -11q-13 -6 -25 -13q-4 0 -7.5 -1t-6.5 -1q-4 0 -7.5 1t-6.5 1q-13 -7 -23.5 -16t-24.5 -16q-12 -6 -25.5 -7.5t-27.5 -6.5q-20 -8 -39.5 -17.5t-39.5 -15.5q-11 -3 -21.5 -4.5t-21.5 -5.5q-10 -4 -18 -10.5
t-17 -8.5q-14 -3 -27.5 -1.5t-27.5 -1.5q-20 -4 -32.5 -9t-35.5 -5q-4 0 -15.5 -6t-16.5 -8q-33 -3 -66 -3.5t-66 -0.5q-35 0 -69.5 0.5t-69.5 0.5q-8 0 -24.5 -1.5t-24.5 0.5q-8 1 -16.5 5.5t-16.5 7.5q-49 20 -90 49.5t-73 71.5l-8 10q-4 5 -7 10q-2 5 -3.5 11.5
t-2.5 11.5q-5 17 -11.5 33t-17.5 30q-1 14 -1.5 27t-2.5 26q-1 5 -4.5 14.5t-3.5 11.5q0 33 10 61t12 58q5 5 9 12t9 12q10 35 25.5 67t35.5 61q8 11 16.5 22t15.5 22q3 6 5.5 13t2.5 13q34 35 59 76t48 85q24 23 44.5 47t34.5 53q26 22 50.5 44t38.5 53q20 12 34.5 26
t37.5 22q56 52 118.5 87.5t137.5 52.5q11 2 24.5 6t24.5 4q7 0 17 -1.5t16 -5.5q12 8 24 8t26 2q10 14 20.5 26.5t22.5 23.5q17 8 37 10.5t40 2.5h18q10 0 20 -1q9 -1 16.5 -5t14.5 -8.5t14.5 -8.5t16.5 -4q6 0 16 4q21 -20 49 -31t55 -19q13 -10 23.5 -18.5t26.5 -10.5
q3 -11 9.5 -19t15 -15t17.5 -13t15 -14q22 -26 37 -55.5t35 -55.5q5 -32 14.5 -63t11.5 -63q13 -20 16 -47t3.5 -56t2 -57.5t10.5 -51.5zM1425 432q0 32 -4.5 62.5t-4.5 61.5q0 12 1 24.5t4 23.5q-10 21 -14.5 40.5t-2.5 42.5q-11 31 -23 60.5t-28 58.5q-24 0 -22 24
q-11 5 -20 12t-12 21q-20 7 -35 20t-26 30h-3q-4 0 -7 -2t-7 -2h-4q-13 13 -27.5 19t-30.5 9l-32 6q-16 3 -32 9h-5q-16 0 -31 3.5t-31 3.5q-17 0 -30 -7q-14 -20 -27.5 -39.5t-13.5 -46.5q0 -15 6 -28q-8 -9 -13 -24t-16 -19q-5 -2 -10 -3t-10 -1q-4 0 -6 1q-11 9 -17 25.5
t-9.5 34.5t-6.5 36.5t-6 32.5h-4q-33 0 -64 -8t-61 -21t-58.5 -30t-56.5 -34q-12 -7 -25.5 -14t-25.5 -15q-6 -5 -10 -13t-11 -13t-17 -10t-19 -8q-21 -32 -49.5 -57t-57.5 -51q0 -4 -1.5 -6t-3.5 -4.5t-3.5 -5.5t0.5 -8q-1 0 -2 0.5t-2 0.5q-5 0 -7 -4t-6 -5
q-12 -21 -27 -40t-30 -37.5t-29.5 -38t-25.5 -41.5q-12 -3 -16.5 -15.5t-14.5 -17.5q-12 -30 -29 -57.5t-34 -54.5t-31.5 -55.5t-20.5 -61.5q-8 -1 -8.5 -8.5t-5.5 -9.5q3 -8 3 -15q0 -14 -5.5 -25.5t-5.5 -24.5q0 -23 7 -39t15 -36q3 -8 4 -18t6 -18q4 -6 11 -10t11 -11
q3 -6 8.5 -14t12.5 -16t13.5 -15t12.5 -10q5 -2 11 -1.5t10 -1.5q3 -2 5.5 -7t5.5 -7q9 -8 22 -12.5t27.5 -8t28.5 -5.5t26 -3q15 -10 34.5 -14.5t40.5 -6t41.5 -1t37.5 0.5q5 0 7 4.5t7 5.5q7 -5 19 -5q13 0 24.5 3.5t24.5 3.5q5 0 11 -2q14 8 28.5 8.5t28.5 2.5
q11 2 20 7.5t20 7.5q12 2 25 1t25 2q10 2 18.5 6.5t17.5 7.5q15 5 31 5.5t31 5.5q9 4 16.5 11.5t18.5 10.5q14 4 27 3t27 4q9 4 16 10.5t16 10.5q18 8 37 12.5t35 16.5q7 2 14 2t15 1q10 9 20 16t24 9q3 1 6.5 0.5t6.5 0.5q5 1 5 7.5t5 6.5t9 -2t9 -2h4q5 11 15 18t22 12.5
t24.5 11.5t21.5 16q2 2 4 2t4 -1.5t6 -1.5q2 0 3 1q1 5 2 11t5 11q29 7 46.5 25.5t32.5 41.5q5 0 4.5 8t-0.5 11v3q16 2 25.5 11t16.5 20.5t12.5 24t14.5 23.5q-1 5 -1 14q0 16 3.5 32t7.5 32t7.5 32t3.5 33zM1159 224q-35 -40 -83.5 -65.5t-95.5 -48.5h-4q-14 0 -26 -2
t-23 -9q-46 -5 -90 -11.5t-89 -6.5q-52 0 -105 14q-3 5 -8.5 7t-9.5 8q-17 3 -35 7.5t-33 13.5q-9 6 -16.5 13.5t-14.5 15.5t-15 14.5t-18 10.5q-5 21 -13.5 40t-16 37.5t-13 38t-5.5 42.5q0 19 7 35.5t5 36.5q15 35 38.5 62.5t51.5 50t60 41t65 35.5q15 8 31.5 17t32.5 16
q7 3 23.5 6t35 5.5t35.5 4t26 1.5q15 0 32 -1t32 -6q11 -3 20.5 -6t22.5 -4q7 -5 12 -11t12 -11v-4q0 -7 2 -12l5 -9q3 -4 5.5 -9t2.5 -14q0 -16 -6.5 -25.5t-11.5 -23.5q-15 -11 -34 -16.5t-38 -7.5q-15 5 -25.5 11.5t-28.5 5.5q5 10 6.5 21t4.5 22q-18 7 -41 7
q-25 0 -48.5 -10t-43.5 -26q-3 1 -6.5 2.5t-7.5 1.5q-3 0 -4 -1l-3 -3q-24 -16 -49 -27.5t-49 -32.5q-14 -13 -25.5 -29t-27.5 -28q-13 -37 -13 -70q0 -14 1 -28.5t5 -27.5q2 -9 8 -15t12.5 -12t11.5 -13.5t7 -17.5q6 -7 15 -12l18 -9q9 -4 16.5 -9.5t11.5 -15.5h8
q13 0 24.5 -3.5t22 -8t21 -8t21.5 -3.5q10 0 22 5q11 -5 23 -6t23 -4q18 7 38 7q11 0 21 -1t21 -1q14 0 24 3t18 7t15 7t16 3q6 0 11.5 -1t11.5 -1q11 0 15.5 6t9.5 6q3 0 7 -4q14 6 24 16t23 17q9 -6 22 -6q15 0 30 7t30 9z" />
    <glyph glyph-name="ordfeminine" unicode="&#xaa;" horiz-adv-x="586" 
d="M575 647q-5 -23 -8 -45t-10 -45q-5 -16 -10.5 -31t-14.5 -29q-11 -19 -21.5 -39.5t-10.5 -43.5q-5 -9 -10.5 -17t-7.5 -19q6 -16 14 -30.5t8 -32.5v-9q-11 -10 -21.5 -18.5t-14.5 -24.5l-5 1q-9 0 -17.5 -3t-17.5 -7.5t-17.5 -8t-17.5 -3.5h-4q-29 29 -29 72
q0 27 10 54.5t26 49.5q-2 6 -3 12.5t-4 11.5q-11 8 -23.5 11t-23.5 8q-23 -5 -45.5 -9t-45.5 -9q-10 -2 -19.5 -3.5t-18.5 -4.5q-8 -2 -17 -8t-18.5 -13t-18.5 -14t-18 -11q-5 -12 -5 -23q0 -23 15 -36t29 -27q10 2 17 2q16 0 31 -6t31 -6q13 0 23 10q20 -9 34.5 -25.5
t14.5 -39.5q0 -12 -3 -21q-12 -5 -25.5 -10t-17.5 -19q-13 5 -24.5 8.5t-24.5 3.5q-14 0 -23 -4q-23 1 -41 5.5t-35.5 11t-34.5 15.5t-36 18q-8 18 -18 36t-25 31q3 4 3 10q0 8 -6 15t-8 15q-2 5 -2 12v12q0 30 12 59t33 49q26 9 51.5 21t51.5 21q14 5 27.5 7.5t27.5 5.5
q8 2 18.5 8t14.5 13q8 -7 24 -7q8 0 17.5 2.5t15.5 8.5q16 -4 35.5 -7t38 -7.5t36 -12t29.5 -20.5q9 4 14 13t8.5 19t7 19.5t10.5 16.5q2 17 5 34t3 34q0 3 0.5 7.5t-1.5 7.5q-2 8 -13 11t-18 3q-6 0 -13 -2t-10 -8q-12 4 -31 4t-40.5 -5t-38.5 -14h-7q-12 0 -25 -4
t-26.5 -9t-27 -10.5t-26.5 -8.5q-6 -2 -7 -6t-3 -9q-14 -1 -23.5 -6.5t-18.5 -12t-18.5 -12.5t-22.5 -8q-9 9 -16 20t-17 19q8 14 8 25t-1 26q4 -1 6.5 1t4.5 5t3.5 6.5t4.5 5.5q2 -2 6 -1t7 1q5 0 4 -4q8 8 14 16t15 13q14 8 31.5 12t32.5 9q5 2 11.5 3.5t11.5 3.5
q2 2 5 8.5t5 6.5q3 0 4.5 -4t9.5 -4q3 0 9.5 4.5t13.5 4.5q6 0 10 -5q29 12 58 23.5t61 11.5q13 0 28 -3q11 10 28 10q20 0 39.5 -8.5t36.5 -18.5q-1 -3 -1 -8q0 -14 6.5 -20t8.5 -15q2 -7 0.5 -16.5t-1.5 -16.5q0 -8 1.5 -18.5t6.5 -17.5z" />
    <glyph glyph-name="guillemotleft" unicode="&#xab;" horiz-adv-x="1026" 
d="M540 500q-22 -45 -52 -83t-71 -66q-11 -7 -21.5 -12t-20.5 -11q-7 -5 -18 -13.5t-15 -15.5h-5q-18 0 -29.5 -7t-21 -16t-19.5 -18t-25 -12q-7 -12 -17.5 -20.5t-21.5 -16.5t-20 -17.5t-13 -24.5q10 -15 25.5 -24t31.5 -16.5t31.5 -16t26.5 -22.5q11 0 20.5 -4.5
t19.5 -10.5t22 -10.5t28 -3.5q11 -13 27.5 -19t32.5 -9q-4 -10 -4 -17q0 -15 11 -24.5t15 -23.5q-6 -8 -11 -16t-14 -12q-5 1 -10 1.5t-10 0.5q-9 0 -19.5 -2.5t-17.5 -7.5q-4 -1 -6 1t-3.5 5t-3.5 6t-6 3q-3 -2 -7 -1t-8 1q-6 0 -6 -4q-5 8 -14 11t-19 6t-18 7.5t-11 15.5
q-51 9 -98.5 31t-94.5 43q-8 13 -19 24.5t-21.5 24t-17.5 26.5t-7 31q0 9 3 16t7.5 13t8.5 12t7 15q13 2 23 10t18.5 16.5t17.5 15.5t20 8q26 29 58 49.5t67 36.5q14 17 32 30.5t35.5 27t33 28.5t25.5 36q11 3 18 10t12 16t11 17.5t16 13.5q2 18 11 29.5t15 28.5q5 4 12 6.5
t14 2.5q21 0 37 -15.5t23 -33.5l-4 -16q-2 -8 -2 -16q0 -9 6 -18zM954 -12q0 -22 -17 -33q-6 0 -11 3l-9 5q-4 2 -9.5 3t-13.5 0q-5 1 -10 5t-10 8.5t-10 7t-9 1.5q-8 19 -25 28.5t-37 16t-39.5 14.5t-31.5 23q-2 0 -4 -0.5t-4 -0.5q-11 0 -19 4l-17 8q-9 5 -19.5 8.5
t-25.5 1.5q-14 14 -32.5 18t-36.5 4q-18 18 -36 23t-39 17q0 8 -7 10q-1 5 -1.5 10t-0.5 10q0 28 9 46t22 41q38 26 69 58.5t56 70.5h2q5 0 6.5 3t9.5 1q4 9 3 18q18 10 32 24.5t27 30t26.5 30t29.5 26.5q12 -1 20.5 -6.5t19.5 -7.5q0 -9 -4.5 -14.5t-6.5 -14.5q5 -13 5 -25
q0 -9 -1.5 -18t-3.5 -18q-7 -3 -11.5 -7.5t-9.5 -9t-10.5 -8t-14.5 -4.5q-14 -23 -31 -43.5t-35.5 -40t-36.5 -39.5t-34 -42q16 -13 38 -18.5t41 -9.5q11 -18 31.5 -23t40.5 -6v-3q0 -3 1 -5.5t2 -5.5q14 -2 23.5 -8.5t18.5 -14t19 -13.5t25 -7q1 -5 -1.5 -7.5t-1.5 -7.5
q8 -4 13.5 -6.5t15.5 -0.5q2 -13 11.5 -20t20 -13t19 -13t8.5 -20q0 -3 -0.5 -6t-1.5 -7q13 -12 13 -31z" />
    <glyph glyph-name="logicalnot" unicode="&#xac;" horiz-adv-x="1097" 
d="M984 270q-14 -57 -32 -114t-44 -111v-17q0 -8 -2 -14t-4 -10.5t-3.5 -9t-0.5 -10.5q-6 -5 -13 -7.5t-13.5 -4.5t-13 -4.5t-10.5 -8.5q-5 0 -8.5 0.5t-8.5 0.5q-13 0 -19 -12q-8 4 -14 11t-15 10q-3 11 -5 22.5t-2 22.5q0 23 6 46t12 45q16 15 20 42.5t5 48.5q-23 9 -47 9
q-32 0 -60 -14q-26 11 -58 11q-25 0 -49.5 -4t-50.5 -4q-33 0 -61 12q-26 -11 -60 -11q-17 0 -34.5 2.5t-34.5 2.5q-10 0 -8 -9q-8 3 -16 4t-16 1q-28 0 -54.5 -5t-53.5 -5q-9 0 -18.5 1t-17.5 4q-21 -8 -47 -14t-49 -6q-26 0 -47.5 10.5t-21.5 41.5q0 17 8.5 27.5
t20.5 19.5q38 4 75 13t75 9q18 0 36 -3q16 5 36 5.5t39.5 0.5t38.5 2t34 9q6 -2 11.5 -4t11.5 -2q7 0 13 3q3 -4 3.5 -8.5t3.5 -9.5q8 5 14 11.5t15 9.5q1 -1 6 -2.5t11 -2.5t11.5 -1.5t7.5 -0.5q6 0 8 4t7 3h2q2 -3 5 -4t6 -1q6 0 12 1t14 1q20 0 41 -1t43 -1q32 0 65.5 2
t65.5 10q10 -3 24 -3t27.5 4t27.5 11q5 -2 9.5 -3t9.5 -1q11 0 20.5 4t19.5 8.5t20 8.5t21 4q3 -11 8 -17.5t10.5 -12.5t9.5 -14.5t4 -23.5q0 -6 8 -5t10 -3z" />
    <glyph glyph-name="sfthyphen" unicode="&#xad;" horiz-adv-x="795" 
d="M713 297q-10 -1 -17.5 -5t-15.5 -6q1 -1 1 -3q0 -6 -3 -8.5t-1 -10.5q-15 -8 -31 -12t-32.5 -7t-32.5 -7t-30 -13v11q-12 -7 -23 -7q-10 0 -19 3.5t-20 3.5q-5 0 -13 -4q-10 1 -15.5 5.5t-13.5 9.5q-5 -10 -14.5 -12.5t-17.5 -2.5q-11 0 -20.5 1t-18.5 3q-16 -5 -30 -5.5
t-30 -0.5q-14 0 -26.5 -1.5t-25.5 -7.5q-4 10 -17 10q-6 0 -12.5 -0.5t-12.5 -0.5q-10 0 -15 6q-4 -2 -3.5 -7t-0.5 -8q-15 6 -32 6q-14 0 -27 -3t-26 -3q-7 0 -14 2t-12 2q-6 0 -9 -2.5t-5.5 -5t-6 -5t-9.5 -2.5q-11 0 -15 6.5t-12 8.5q0 10 -3 18t-7 16.5t-7 16.5t-3 18
q0 3 0.5 6.5t0.5 6.5q14 20 40.5 28.5t48.5 8.5q11 0 16.5 -4t13.5 -11q70 8 140.5 11t140.5 7q23 2 46 3.5t46 3.5q3 0 4 2.5t1.5 5.5t2 5t5.5 2q11 0 15 -6.5t12 -8.5q7 4 16.5 6t18.5 3.5t17.5 4t14.5 8.5q8 1 9 -3.5t6 -6.5q5 1 11 2.5t11 1.5h7q4 0 7 -1
q9 -20 23.5 -36t23.5 -36z" />
    <glyph glyph-name="registered" unicode="&#xae;" horiz-adv-x="1696" 
d="M1552 269q0 -5 0.5 -11t-0.5 -11l-4 -11q-4 -17 -4 -37q0 -4 0.5 -8t0.5 -9t-3 -9.5t-6.5 -10t-6.5 -13t-2 -17.5q-16 -21 -31.5 -42t-29.5 -44q-31 -23 -64.5 -39.5t-61.5 -42.5q-17 -3 -31.5 -11t-29.5 -18q-5 -2 -9 -5.5t-8 -5.5q-10 -4 -20 -6t-20 -5
q-23 -8 -44.5 -17t-41.5 -22q-44 -4 -86 -29l-25 -3q-10 -2 -21 -11q-4 1 -6.5 1.5t-5.5 0.5q-13 0 -23 -6t-27 -3q-33 -17 -74 -22.5t-77 -12.5q-14 -2 -26.5 -5t-26.5 -7h-5q-3 0 -7.5 0.5t-8.5 0.5h-5q-11 0 -23.5 -1.5t-22.5 -6.5q-17 2 -35 2h-34q-33 0 -66 -1.5
t-66 -3.5q-14 12 -32 12h-35q-11 0 -22.5 2t-21.5 10q-4 -1 -12 -1q-14 0 -27.5 5t-28.5 3q-8 7 -18 11t-20.5 7.5t-19.5 8t-14 13.5h-17q-12 11 -21 19.5t-26 9.5q-16 21 -33.5 40t-34 39t-31.5 41t-26 45v5q0 29 -5 58.5t-5 58.5q0 36 11.5 65t27.5 55t34 52.5t30 56.5
q14 9 25.5 21.5t17.5 28.5h14q5 4 4.5 6.5t-0.5 7.5t3 8q13 9 23.5 18.5t15.5 24.5q12 6 21.5 15t19 18.5t19.5 18t23 13.5q1 5 3 11t4 11q40 17 75.5 40.5t70.5 47.5q14 10 29 18.5t29 18.5q13 9 19 15t26 6h2q9 9 20.5 14.5t23.5 10t23 10.5t19 15q9 2 18 5.5t18 1.5
q12 9 26.5 14.5t29.5 11t28.5 12t23.5 17.5q6 -4 10 -4q8 0 13 5.5t13 5.5q5 0 11 -4q6 4 9 10t8 11q32 9 63 21t63 23q16 6 32 9.5t33 8.5q15 4 28 11.5t30 7.5q10 0 20 -5q13 7 27 7q13 0 26 -2t26 -2q9 -13 19.5 -23t19.5 -20.5t15 -23.5t6 -31q0 -5 -0.5 -10t-1.5 -10
q-16 -5 -27.5 -13.5t-23.5 -18.5q6 -26 32 -22q4 -10 12.5 -15.5t17.5 -11t16.5 -12t10.5 -18.5q32 -17 60 -37t45 -52q19 -11 32 -27t24 -34l22 -36q11 -18 26 -33l-1 -5q0 -12 4 -22t15 -16q5 -47 15 -92.5t10 -93.5zM1481 354q-8 5 -10 14t-5 15q-4 37 -14.5 74.5
t-36.5 65.5q1 2 1 5q0 5 -2 8.5t-2 8.5q-15 9 -27 23l-24 29q-12 15 -24.5 28t-28.5 20q-1 1 -3 1q-5 0 -8 -2.5t-7 -2.5q-2 0 -4 1q-4 4 -6 9.5t-4 12.5h-3q-5 0 -9.5 -1t-9.5 -1q-3 0 -5.5 0.5t-5.5 1.5q1 5 -1.5 8t-5.5 5t-6 4.5t-4 6.5q-19 5 -37.5 13t-33 20
t-23.5 28.5t-9 38.5q0 5 0.5 9.5t1.5 9.5q12 5 27.5 9t23.5 15q-6 8 -9.5 17t-12.5 12q-9 -3 -18.5 -2.5t-18.5 0.5h-9q-4 0 -8 -1q-12 -3 -24 -8t-23 -9q-28 -10 -56.5 -15.5t-57.5 -7.5q-18 -13 -38 -19.5t-38 -19.5q-20 -2 -38 -9.5t-35.5 -16.5t-35.5 -17t-38 -11
q-9 -10 -21.5 -15.5t-25.5 -11t-24 -12t-18 -18.5q-13 -3 -26.5 -8.5t-16.5 -20.5q45 19 93.5 27.5t96.5 19.5h4q5 0 7 -3t7 -4q5 5 13.5 6.5t17.5 3t17 3.5t13 8q0 -8 6.5 -8.5t10.5 -5.5q16 6 32 6q20 0 38 -7.5t38 -12.5q0 -9 6 -10.5t5 -11.5q19 -4 30.5 -14.5t17.5 -25
t8.5 -31.5t4.5 -33q-12 -29 -26.5 -59t-38.5 -53q-4 0 -4 -3q0 -2 1.5 -4.5t2.5 -4.5q-1 -2 -3 -2q-4 0 -4.5 4t-4.5 4l-2 -1q-57 -55 -132 -86q-11 -18 -26.5 -24t-35.5 -8l-21 -21q-26 -4 -49 -17.5t-49 -18.5v-4q0 -8 6.5 -11t8.5 -11q2 0 3 -0.5t3 -0.5q6 0 9 4.5
t10 3.5q6 -6 8.5 -9.5t5.5 -5t7 -1.5h13q14 0 25 -5t24 -7q22 -5 43.5 -4.5t43.5 0.5q13 0 25 -0.5t25 -2.5q8 -2 15.5 -6.5t15.5 -4.5q5 0 9.5 1.5t9.5 1.5q11 0 24 -6t26 -8q32 -5 65 -7.5t64 -16.5q5 -15 14.5 -25t17.5 -23q-8 -9 -18.5 -11.5t-21 -3t-21.5 -1t-21 -5.5
q1 5 -1.5 5.5t-5.5 1.5q-14 3 -31.5 5.5t-36.5 4.5t-37 3t-32 1q-5 0 -6 4.5t-6 4.5q-1 -1 -2 -1q-3 -2 -6 -3.5t-6 -1.5q-5 0 -12 3.5t-12 5.5q-11 -2 -23.5 -3t-23.5 -1q-38 0 -75 6q-8 1 -16 3t-16 2t-11.5 -4t-9.5 -4q-3 0 -5 1q-8 6 -21.5 7t-24.5 3q-14 -8 -22 -21.5
t-14 -28.5t-11.5 -30.5t-14.5 -27.5q5 -1 5 -6v-7q0 -7 3 -8q-8 -8 -16.5 -14t-12.5 -18q-19 -3 -30 -12.5t-27 -16.5q-5 10 -11.5 18.5t-12.5 16.5t-10.5 17.5t-4.5 22.5q0 23 9.5 43t18.5 40q-1 4 -1 12q0 23 16 38q-10 7 -19.5 11.5t-18 9.5t-14 13.5t-6.5 23.5
q-2 2 -6 2l-7 1q-3 1 -5.5 2t-2.5 5q0 23 4.5 47t16.5 43h4q4 0 6.5 -2t5.5 -2h2q8 6 13.5 14.5t10.5 17t11 16.5t15 13q3 18 9.5 34.5t11.5 33.5q5 2 8 4t7 3q6 22 15 41.5t13 41.5q10 2 14.5 10t4.5 18q0 8 -4 15q-47 -12 -93 -29t-79 -54q-11 2 -23 4t-23 0q-3 11 -12 17
t-17 12q-14 -3 -22.5 -10.5t-16 -16t-16 -16.5t-21.5 -11q-2 -10 -8 -15.5t-9 -13.5q-17 -7 -29 -19.5t-23 -27.5l-21 -29q-10 -14 -24 -24q-6 -15 -13.5 -27t-14.5 -24t-12.5 -25.5t-6.5 -31.5q-4 -1 -5.5 -3t-5.5 -4v-5q0 -11 -3.5 -19t-3.5 -22q0 -3 -4 -4t-6 -3
q2 -6 2 -11q0 -6 -2 -11.5t-4 -10.5q6 -18 6 -37q0 -7 -0.5 -13.5t-1.5 -14.5q13 -23 29.5 -45t27.5 -48q11 -2 16 -12t13 -16q4 -3 10 -3t11 -5q3 -3 3 -7.5t4 -6.5q14 -11 36.5 -19.5t47.5 -14.5t49.5 -10t42.5 -6t37 -5.5t37 -3.5t33 6q1 -8 11 -8q2 0 3 1q19 4 36 4
q8 0 15.5 1.5t15.5 1.5q5 0 7.5 -4t7.5 -4q3 0 4 1q54 6 108 12.5t108 11.5q8 6 18 9.5t18 9.5h3q24 0 47.5 6t46 13t46 13t47.5 7q27 16 57 27.5t60 22t59.5 22t56.5 28.5h15q23 17 45.5 37t50.5 32q34 32 54 78t20 94q0 20 -6 43q8 3 8 14t4 17zM961 578q-5 11 -11.5 19
t-14.5 16h-21q-48 0 -99.5 -5.5t-94.5 -26.5q1 -8 0 -15t-1 -15q0 -18 15 -28q-20 -43 -41 -85t-38 -87q2 0 3.5 0.5t4.5 0.5q7 0 10.5 -3.5t10.5 -4.5q8 9 18.5 14.5t22 10t22.5 9t20 12.5h5q6 0 11.5 2t12.5 2q14 27 39 42t54 23q4 13 11.5 22.5t16 18t17 16.5t15.5 19
q1 13 1.5 22.5t10.5 20.5z" />
    <glyph glyph-name="macron" unicode="&#xaf;" horiz-adv-x="633" 
d="M633 951q-3 -5 -8.5 -7t-11.5 -3.5t-11.5 -4t-8.5 -6.5q8 -19 8 -37q0 -14 -8.5 -20t-20 -8.5t-24 -5t-20.5 -9.5q-5 3 -11 4.5t-12 2.5t-11.5 3.5t-8.5 7.5q-57 -8 -113.5 -14.5t-112.5 -20.5q-10 2 -17 2q-11 0 -21 -4t-19 -10q-10 3 -20 4t-19 1q-25 0 -49 -2.5
t-47 -2.5h-19q-5 16 -19.5 21t-27.5 8q-1 5 -1 13q0 16 4.5 30t3.5 30q7 11 20.5 14.5t22.5 13.5q23 -5 45 -7t45 -2q60 0 120 8l120 16q34 5 67 10.5t66 13.5q8 2 7 8t3 11q8 -2 14.5 -1t12.5 1q14 0 20 -15q2 -1 8 -1q5 0 10 1.5t10 1.5q4 0 4 -2q8 -5 18 -19.5t12 -23.5z
" />
    <glyph glyph-name="degree" unicode="&#xb0;" horiz-adv-x="544" 
d="M513 520v-11q0 -5 -1 -10q-13 -23 -25 -46t-27 -42.5t-35.5 -34t-48.5 -21.5q-38 -29 -86 -44.5t-93 -26.5q-8 -7 -15.5 -13t-17.5 -9q-13 5 -22.5 4t-21.5 -1q-6 0 -12.5 1t-11.5 3q-9 4 -19 14t-20.5 22t-20 23.5t-16.5 19.5q-2 17 -3.5 32t-1.5 32q0 7 0.5 14t1.5 15
q18 35 42 66t44 63q17 8 26 22t21 25q7 8 18 12t11 16v4q2 0 4 -0.5t4 -0.5q10 0 18.5 4t17.5 8.5t19 8t23 2.5q5 5 15 5q8 0 15.5 -2t15.5 -2q10 0 19 6q9 -4 17 -6t19 -2q5 0 10.5 0.5t10.5 0.5q21 -6 40 -16t42 -13q21 -26 32.5 -57.5t11.5 -64.5zM419 503q-1 7 -1 15.5
t-2 15.5t-7 12t-15 7v-2q0 -5 -1.5 -9.5t-5.5 -6.5q-3 1 -8 1q-8 0 -12.5 -3.5t-8 -7.5t-7.5 -8t-11 -4q-10 5 -18 5q-10 0 -18.5 -2t-16.5 -3q-13 6 -18 19t-11 24q-42 -24 -72.5 -59t-53.5 -77v-39q14 -8 31 -8q19 0 38.5 8.5t35.5 20.5q4 -4 12 -4q11 0 29 8.5t38 19.5
t39 21.5t32 15.5q8 9 13.5 22t18.5 18z" />
    <glyph glyph-name="plusminus" unicode="&#xb1;" horiz-adv-x="993" 
d="M937 530q-4 -6 -10 -10.5t-11 -8.5t-9.5 -9.5t-5.5 -14.5q-18 -5 -37 -7.5t-39 -2.5q-17 0 -33 2.5t-32 2.5q-22 0 -43.5 -4t-40.5 -12q-17 3 -34 3q-29 0 -55.5 -8t-54.5 -14q-4 -10 -6.5 -24.5t-11.5 -21.5q9 -21 9 -45v-8q0 -4 -2 -8q7 -9 11.5 -19t8 -20.5t8 -20.5
t12.5 -19q-17 -27 -37.5 -50t-48.5 -40q-23 2 -35 16.5t-18 34t-8.5 40.5t-6.5 38q0 2 -0.5 2.5t-0.5 2.5q0 5 4 7.5t4 8.5q0 5 -2 14.5t-2 19.5v26q0 13 -2.5 25.5t-12.5 23.5q-17 -5 -36 -3t-35 -8q-16 -2 -34.5 -4t-37 -7t-35 -13.5t-26.5 -22.5q-8 2 -14.5 4.5
t-14.5 2.5q-7 0 -14 -3q-13 11 -21 26.5t-8 32.5q0 11 3 21.5t8 19.5q35 10 70 23t73 13q5 0 5.5 4t2.5 7q7 0 10 -2.5t8 -4.5q15 8 30.5 9.5t31 2t30 2.5t26.5 11q1 4 1 11q0 19 -5 37t-11 36t-11 36.5t-5 37.5q0 37 31 61q17 -1 31 -9t30 -10q23 -27 30.5 -61t11.5 -69
q2 -9 2.5 -18.5t2.5 -19.5q1 -6 5.5 -7.5t5.5 -6.5q19 0 38.5 1t36.5 9q5 -1 10 -1h10q25 0 45 13q8 -2 16 -2h16q17 0 39 2.5t36 13.5q10 -6 21 -6q22 0 40 13q12 -2 23 -7.5t24 -5.5q4 0 10 2q11 -15 21 -28.5t15 -32.5zM898 5q0 -7 -4 -12t-8.5 -10t-8 -11.5t-3.5 -15.5
q-11 0 -17 -6t-14 -11q-2 2 -5.5 3.5t-7.5 1.5q-5 0 -10 -5.5t-10 -7.5q-12 7 -24 7t-24 -3.5t-24 -7.5q-8 2 -15.5 3t-15.5 1q-32 0 -65 -11q-20 3 -39 3q-44 0 -87 -6.5t-87 -6.5q-6 0 -7.5 -3.5t-9.5 -3.5q-23 0 -46.5 -2.5t-46.5 -2.5h-11q-5 0 -11 1q-4 -2 -14.5 -8.5
t-14.5 -6.5q-9 0 -16 2t-15 5q-20 -8 -46 -8q-11 0 -22 2.5t-22 2.5q-17 0 -34.5 -4.5t-34.5 -4.5q-29 0 -46 19t-17 47q0 18 9 34t26 24q20 -5 40.5 -7.5t41.5 -2.5q16 0 31.5 2t30.5 8q12 -5 22 -5q15 0 28.5 4t27.5 4q8 0 14.5 -1.5t13.5 -1.5t11.5 3.5t9.5 3.5q3 0 8 -3
t8 -4q8 4 14.5 6t15.5 2q5 0 9 -1t9 -1t4.5 3.5t4.5 4.5h7q75 0 148.5 10.5t147.5 10.5q29 0 53.5 -2.5t52.5 -7.5h16q5 0 11.5 1t8.5 6q9 -3 14.5 -7.5t11 -8.5t12.5 -6t19 0q2 -4 2 -8z" />
    <glyph glyph-name="twosuperior" unicode="&#xb2;" horiz-adv-x="588" 
d="M629 479q0 -17 -9 -25.5t-21 -14t-24 -11.5t-18 -17h-21q-29 -14 -56.5 -30t-55 -31.5t-55.5 -29.5t-59 -24q-15 -17 -34.5 -28t-40.5 -20.5t-42 -19.5t-37 -25q-14 0 -27 -2.5t-26 -6.5t-26.5 -7t-27.5 -3q-9 0 -12.5 4.5t-9.5 4.5t-10 -2.5t-9 -2.5q-1 0 -3 2.5t-3 3.5
q-9 8 -15.5 20t-6.5 25v3q0 12 6 19.5t6 19.5q0 8 -1 12q12 4 18 13.5t21 10.5q1 12 7.5 22t15 20t16.5 20.5t11 23.5q10 1 14.5 7.5t14.5 7.5q3 3 4 7t2 7.5t3.5 5.5t8.5 1q2 21 10.5 34t18.5 23.5t19 22t12 28.5q15 4 23.5 14.5t16 21.5t16.5 21t24 14q6 21 18 42l25 42
q13 21 22.5 42.5t9.5 42.5q0 10 -10 17t-15 15q-6 0 -8.5 -2.5t-5 -4.5t-6.5 -4t-13 -2q-24 0 -43.5 -8t-37.5 -20l-35 -23q-17 -11 -38 -18q-6 1 -12 1.5t-13 0.5q-16 0 -32 -6q-8 8 -11 18t-3 20q0 8 1.5 17t5.5 17q11 1 23 4t12 17q17 4 36.5 10.5t28.5 22.5q42 16 82 30
t86 14q15 0 31 -1.5t31 -6.5q21 -21 38 -39t20 -51q-11 -29 -23 -56.5t-17 -58.5q-14 -16 -26 -34.5t-24.5 -36.5t-27 -34t-33.5 -27q-36 -57 -75.5 -110t-86.5 -102q-2 -11 -6.5 -18.5t-10.5 -14.5t-11 -14t-8 -17q5 -4 12 -4q11 0 24.5 6t21.5 12h4q14 0 26.5 7t26.5 7
q19 14 40 23t39 24q3 -3 7 -3.5t8 -0.5h11q37 17 72.5 36t73.5 36q11 13 27 20.5t33 13t33.5 12t28.5 18.5q6 -6 17 -6t19 -4z" />
    <glyph glyph-name="threesuperior" unicode="&#xb3;" horiz-adv-x="528" 
d="M487 474q-7 -26 -19.5 -49.5t-23.5 -47.5q-15 -9 -28 -18t-15 -28q-15 0 -19 -11t-9 -22q-16 -8 -31 -17.5t-24 -25.5q-64 -30 -93 -93q-4 1 -14 1q-8 0 -18.5 -2.5t-13.5 -13.5l-14 3q-6 2 -14 1v6q0 7 -3.5 10.5t-7.5 6.5t-7.5 6.5t-3.5 9.5q4 11 11.5 19.5t16 16.5
t16.5 16.5t13 19.5q17 6 31.5 16.5t22.5 26.5q23 9 40 24.5t31.5 33.5t29 37t32.5 34q-2 8 -3.5 14.5t-0.5 14.5q-1 1 -5 1q-8 0 -11.5 -4t-9.5 -4q-5 0 -7 3t-6 4q-11 -6 -25 -6.5t-25 -0.5q-23 -23 -57 -23q-26 0 -44 16.5t-18 43.5q0 9 4.5 16t2.5 15q15 9 26 23t21 29
t20.5 29t25.5 24q9 27 24 49.5t29.5 44.5t26.5 46t17 56q-12 14 -27 14q-2 0 -9 -1.5t-7 -5.5t3.5 -7t3.5 -6t-4 -4h-21q-5 -3 -6 -8t-4 -10q-24 -3 -47 -15t-36 -32h-3q-11 0 -17.5 -3.5t-12 -8.5t-10 -11t-10.5 -12q-15 -4 -25 -11.5t-18 -16.5t-15.5 -19t-17.5 -18
q-11 3 -19 9.5t-15 14t-14 14.5t-17 12v36q16 22 39 37.5t47 29t47.5 28t42.5 34.5h3q13 0 25 6t24 14t24.5 14.5t27.5 8.5q6 5 11.5 9t6.5 13h6q15 0 29.5 2t29.5 2q23 0 37.5 -9t19.5 -9q4 0 7 1.5t7 0.5h3q11 -11 15 -25.5t4 -30.5q0 -17 -5 -36t-13 -37t-19.5 -33.5
t-24.5 -26.5q2 -3 2 -9q0 -11 -5 -19t-12 -16.5t-13 -17.5t-7 -21q-8 -2 -11.5 -9.5t-13.5 -7.5q-4 -22 -17 -37.5t-19 -34.5q9 -6 21 -6q13 0 24 6.5t16 6.5t4.5 -5.5t6.5 -5.5q3 0 6.5 1.5t7.5 1.5q14 0 25 -6t28 -4q17 -12 24.5 -33t15.5 -39z" />
    <glyph glyph-name="acute" unicode="&#xb4;" horiz-adv-x="337" 
d="M337 1124q-4 -8 -8.5 -13t-8 -10.5t-5 -12.5t-0.5 -18q-7 -12 -16.5 -22t-19 -19.5t-18 -20.5t-13.5 -24q-23 -7 -33.5 -24.5t-20.5 -35.5q-29 -10 -43.5 -38t-14.5 -56q-13 -14 -32 -17t-36 -3q-12 0 -23.5 0.5t-22.5 1.5q-6 9 -8.5 19t-4 20.5t-3 20.5t-6.5 19
q57 54 109.5 111t102.5 118q-1 3 -1 9q0 7 2.5 12.5t4.5 10.5t3.5 11t0.5 15q19 8 38 8q29 0 49 -17.5t28 -44.5z" />
    <glyph glyph-name="mu" unicode="&#xb5;" horiz-adv-x="840" 
d="M727 600q0 -22 -4 -43.5t-9 -43.5t-9 -43.5t-4 -43.5q0 -1 -2 -9t-4.5 -17.5t-5 -18t-3.5 -11.5q-8 -27 -13 -54t-7 -55q-9 -13 -12 -30t-6 -35t-7 -34.5t-14 -26.5q4 -6 2.5 -15t3.5 -14q-3 -5 -7.5 -6t-5.5 -8q-4 -12 -4 -27t-1 -28q-2 -38 -3.5 -76t-0.5 -76l1 -33
q-8 -6 -16 -11.5t-6 -17.5q-2 0 -5 -0.5t-6 -0.5q-16 0 -28.5 7t-22 18t-16.5 24.5t-11 27.5q2 10 7 19t7 20q-6 25 -6 52t4.5 53.5t10 53t10.5 53.5t6 54q-14 -7 -23 -18t-17.5 -23t-17 -23.5t-21.5 -18.5l1 -2q0 -5 -3 -7t-1 -10q-29 -22 -55 -44.5t-52 -43.5t-55 -39.5
t-65 -32.5q-5 -2 -6 -4.5t-1.5 -5t-3 -4t-8.5 -1.5q-14 0 -26.5 -4t-26.5 -4h-7q-3 0 -7 1q-18 17 -37 34t-30 41q-10 -22 -20.5 -43.5t-18.5 -44.5q-4 -12 -6 -24.5t-5 -23.5l-9 -17q-7 -17 -13.5 -35t-17.5 -34q0 -16 -5.5 -30t-11.5 -27.5t-12 -27.5t-7 -30
q-8 -5 -13.5 -13t-11.5 -16v-3q0 -11 -4.5 -20t-2.5 -20q-14 -12 -30 -12q-19 0 -36 13.5t-28 27.5v7q0 23 11.5 45t14.5 45q8 11 14 21.5t14 21.5q3 23 11 43.5t18 40t19 39.5t13 42q9 5 12 15.5t13 13.5q8 46 25 89.5t35.5 86t35 86t23.5 89.5q8 8 14 18t15 18q-1 4 -1 11
q0 9 1 18t3 18q11 17 18 36.5t12.5 40t10.5 41t13 40.5l-1 9q0 17 3 33l7 32q4 16 7 33t1 36q9 9 14 20.5t15 18.5q15 3 31 3q13 0 23 -4.5t18 -15.5q-3 -11 -3 -20q0 -14 7.5 -25t16.5 -20l1 -15q2 -35 -6 -69t-13 -69q-2 -12 -3 -24t-3 -24q-2 -5 -4 -11t-4 -11
q-5 -13 -8.5 -25.5t-7.5 -24.5q-5 -16 -7.5 -31t-5.5 -31q-2 -6 -3 -13.5t-3 -13.5q-3 -9 -8.5 -18t-9.5 -18q-9 -25 -15.5 -51.5t-9.5 -53.5q-5 -3 -7.5 -8.5t-7.5 -8.5q2 -9 1.5 -18.5t-0.5 -18.5q0 -10 1.5 -20.5t8.5 -18.5h3q26 0 39.5 13t28.5 30q4 2 9 2q6 0 10 -2
q13 13 28 24l30 22q15 11 28.5 23t23.5 28h2q6 0 8 2.5t9 0.5q15 26 32 51t32.5 50.5t29.5 52t23 55.5q6 2 10.5 6t8.5 9q11 35 22.5 73t31.5 70q5 31 8.5 63.5t16.5 61.5q12 5 24.5 10t25.5 5t21 -4q9 -19 13 -39.5t13 -39.5v-12z" />
    <glyph glyph-name="paragraph" unicode="&#xb6;" horiz-adv-x="1072" 
d="M1072 757q-7 -20 -15 -42t-28 -33q-8 -2 -17 -3t-19 -1q-8 0 -17.5 1t-18.5 3q-2 0 -2.5 0.5t-2.5 0.5q-5 0 -5 -4.5t-5 -4.5q-2 0 -2 1q-12 6 -27 6q-10 0 -19 -2t-20 -4q-12 -31 -12 -64v-84q0 -9 -2 -18q-2 -15 -10 -28.5t-11 -28.5q-6 -25 -6 -46.5t-9 -50.5v-6
q0 -8 5.5 -13t6.5 -13q-8 -5 -14.5 -9t-11.5 -9q1 -3 1 -7q0 -7 -1.5 -13.5t-1.5 -14.5t2 -12q-15 -20 -21 -48.5t-8 -51.5q-14 -30 -17.5 -64.5t-5.5 -66.5q-1 -11 -3 -21t-2 -20q0 -12 7 -15.5t7 -13.5q-6 0 -8.5 -4t-3 -9.5t0 -11t0.5 -9.5q0 -7 -3 -9q-17 -23 -22 -54
q-10 -1 -20.5 -2.5t-21.5 -1.5q-3 0 -5.5 0.5t-5.5 0.5q-8 5 -10 16t-12 15q0 2 -1 3v1q0 5 2.5 8t2.5 7q0 2 -1 3q-6 19 -10 36.5t-4 38.5q0 26 4 52t9.5 52t10 52t5.5 53q6 4 9.5 10t8.5 11q-1 17 3.5 32t4.5 32q0 13 -5 22q-13 4 -30 4q-26 0 -50.5 -5.5t-49.5 -5.5
q-8 0 -16.5 0.5t-17.5 0.5q-14 0 -25.5 -4t-21.5 -15v-3q0 -11 -4 -21l-7 -19q-3 -9 -6.5 -18t-3.5 -19q0 -11 3 -20q-9 -5 -13 -14.5t-6 -21t-3 -23.5t-3 -20q4 -11 12.5 -17.5t16.5 -14.5v-13q0 -10 -2 -20t-9 -18v-7q0 -15 -2 -34.5t-16 -29.5q-2 -23 -8 -39.5
t-15.5 -30.5t-21.5 -27.5t-26 -28.5h-26q-5 7 -8.5 15t-8 16t-9.5 15t-13 11q-2 6 -4.5 12t-2.5 13t7 11q-3 7 -5.5 12t-2.5 12q0 12 5.5 19.5t9.5 17.5q-1 3 -1 7v8q0 26 8.5 51.5t10.5 52.5q1 8 5 10.5t9 7.5q-2 3 -3 7t-1 7q0 4 0.5 7.5t0.5 6.5q17 35 25 72t14 76
q-41 4 -81.5 4t-81.5 1h-32q-16 0 -31 2q-3 0 -14.5 5t-25 11.5t-25.5 12t-17 7.5q-15 18 -23 41t-8 46q0 29 12 52q17 13 32 26.5t26 30.5q10 1 21.5 8t23 14.5t23 14t22.5 6.5q8 11 20 15t20 14q56 10 105.5 35.5t102.5 47.5q-2 2 -1 6t1 7q0 2 -1.5 3.5t-3.5 0.5
q17 17 34.5 26t41.5 11q4 -2 10 -7l13 -10q7 -5 13 -9t9 -4q4 0 5 2.5t2 6t2 6.5t4 4q2 -1 7 -1q6 0 11.5 2t11.5 2q5 0 8 -3q9 4 17.5 7.5t15.5 10.5q4 -3 10 -3t10 2t9 4q9 4 18.5 4t17.5 11q36 3 71 10l70 14q35 7 70.5 12.5t71.5 5.5q12 0 23.5 -0.5t22.5 -1.5
q5 -13 15.5 -19.5t13.5 -20.5zM752 589q0 10 -0.5 19t-1.5 20q-19 13 -41 13q-16 0 -31.5 -4t-30.5 -8.5t-30.5 -7.5t-31.5 0q-5 -8 -15 -11l-18 -4v-6q0 -25 -7 -47t-7 -46q0 -7 1 -13.5t3 -13.5q-6 -10 -11.5 -24.5t-9.5 -30t-6.5 -30.5t-2.5 -27v-7q0 -3 1 -6q34 2 67 4
t67 2q30 0 60 -3q7 8 10 17t11 16q1 25 4.5 49.5t8 49.5t8 49.5t3.5 49.5zM430 549q-4 2 -7.5 3t-8.5 1q-10 0 -18.5 -5t-17.5 -10t-19.5 -9t-24.5 -2q-7 -8 -16.5 -14t-16.5 -14q-5 0 -5.5 3.5t-5.5 3.5h-3q-14 -13 -35.5 -21t-42 -17t-35 -23t-14.5 -38q0 -5 0.5 -8.5
t0.5 -7.5q26 -10 51.5 -18t52.5 -8h11q6 0 11 1q11 -8 23.5 -10.5t25.5 -2.5q16 0 32 3t30 10q16 45 20.5 90.5t11.5 92.5z" />
    <glyph glyph-name="periodcentered" unicode="&#xb7;" horiz-adv-x="361" 
d="M259 437q0 -15 -5.5 -28.5t-12.5 -26.5t-14.5 -26t-10.5 -27l-4 1q-14 0 -27 -3.5t-27 -7.5l-27 -8q-13 -4 -27 -4q-2 15 -8.5 25.5t-22.5 10.5q-4 9 -4.5 17.5t-0.5 17.5t-1 17.5t-6 16.5q19 13 30.5 32.5t27.5 35.5q12 -3 24 -3q16 0 30.5 3.5t30.5 3.5q15 0 29 -8
q3 -5 4.5 -11t4 -11.5t6 -9.5t11.5 -4v-3z" />
    <glyph glyph-name="cedilla" unicode="&#xb8;" horiz-adv-x="517" 
d="M517 -296q0 -7 -1 -18t-3 -17q-4 -11 -13.5 -24.5t-21.5 -28t-23.5 -27t-20.5 -20.5q-13 -12 -28 -21t-29 -19q-16 -11 -30.5 -22t-31.5 -21q-8 -5 -16.5 -13t-18.5 -13q-4 -2 -8.5 -1.5t-9.5 -1.5q-12 -5 -26 -17t-28 -19q-9 -4 -20 -3.5t-16 -10.5h-7q-17 0 -33.5 -4.5
t-33.5 -4.5q-13 0 -22 5q-8 -2 -16.5 -3.5t-16.5 -3.5q-20 8 -31.5 26t-11.5 39q0 23 14 42q8 3 16.5 7.5t16.5 4.5t17.5 -9.5t18.5 -12.5q5 -2 10 -1t10 1q10 0 16 -7q14 6 31.5 13t25.5 23q27 3 46.5 15t37 26t35.5 28t42 21q18 14 31.5 30.5t37.5 22.5q-3 9 -3 18
q0 7 2 13l4 12q-5 9 -13.5 13.5t-18 8.5t-18.5 7.5t-15 10.5q-11 -8 -23.5 -10.5t-22.5 -15.5q-43 -2 -85.5 -6.5t-85.5 -4.5h-11q-6 0 -12 1q-8 7 -16 13l-16 12q-6 16 -6 36q0 23 7.5 44t16.5 42q-1 8 7 8.5t11 5.5q10 19 16 36.5t27 28.5q3 26 13 45.5t21 42.5
q4 8 6.5 15t6.5 15q5 11 15 18t21 7t21 -5.5t18.5 -14.5t14 -20t6.5 -21q-22 -45 -43.5 -88.5t-38.5 -90.5q3 -3 4 -3q4 0 7.5 4t5.5 6q13 -5 27 -6.5t28 -1.5q9 0 20 1.5t19 6.5q42 -6 84 -12.5t81 -22.5q1 -11 9 -15t13 -11q1 -21 4 -41.5t3 -41.5z" />
    <glyph glyph-name="onesuperior" unicode="&#xb9;" horiz-adv-x="266" 
d="M256 780q0 -18 -6.5 -33t-14 -29.5t-14 -29t-6.5 -31.5q-12 -12 -19.5 -28.5t-13 -34.5t-12 -35.5t-16.5 -30.5v-21q-14 -18 -20 -39t-6 -42q0 -23 4 -42q-4 0 -5.5 1.5t-4.5 2.5v-33q-19 2 -19 -17q-11 -1 -22 -4t-23 -3q-5 0 -9.5 0.5t-9.5 1.5q-9 17 -19 32t-10 35
q0 12 7 21t12 20q3 9 5 18.5t4 18.5t6.5 17.5t12.5 14.5q4 35 15 60t36 51q-3 5 -6 8.5t-3 9.5l1 4q8 4 11 11.5t11 12.5q0 16 6.5 30t13 28.5t11 31t1.5 39.5q10 29 44 29q14 0 27 -4t26 -10q5 -17 5 -31z" />
    <glyph glyph-name="ordmasculine" unicode="&#xba;" horiz-adv-x="597" 
d="M546 644q0 -55 -22 -106t-51 -96q-6 -9 -12 -19t-14 -19q-4 -5 -10 -9t-11 -8q-20 -15 -39.5 -30t-35.5 -35q-23 -7 -44.5 -17.5t-38.5 -29.5q-35 -11 -68.5 -24t-67.5 -26q-8 4 -14 4q-4 0 -9.5 -1.5t-9.5 -2.5q-9 9 -23 12t-27 6q-11 16 -22 31.5t-24 29.5q-3 15 -3 30
q0 26 7.5 46t17.5 43q6 0 8 4t3.5 9t4 8.5t8.5 2.5q15 37 35.5 71t50.5 59q4 22 14.5 36.5t22.5 27.5l25 26q13 13 21 31q21 15 40.5 31t35.5 38q6 -2 10 -2q14 0 25.5 6t24.5 6q17 0 33 -4.5t34 -4.5h7q4 0 9 2q16 -6 32 -9t33 -5q9 -20 28 -29q16 -38 16 -83zM446 622
q0 18 -6 33h-10v-7q0 -25 -19.5 -36t-39.5 -11h-7q-3 0 -6 1q-5 10 -14 16.5t-18 12.5q-30 -14 -50 -36.5t-37 -47.5t-35 -49.5t-43 -42.5q-5 -20 -15.5 -34t-20.5 -31q1 -2 2 -5t1 -6q0 -9 -7.5 -16t-6.5 -20q15 -5 27 -5q18 0 34 8t32 17.5t32.5 18.5t35.5 12
q14 17 28 28.5t37 14.5q8 16 21.5 28t28.5 22q7 16 17 32t18.5 32.5t14.5 34t6 36.5z" />
    <glyph glyph-name="guillemotright" unicode="&#xbb;" horiz-adv-x="1217" 
d="M1114 298q0 -14 -8 -25t-22 -16q-9 -20 -21 -38t-25.5 -35.5t-27.5 -34.5t-26 -35q-7 -1 -12.5 -5t-12.5 -6q-10 -13 -11 -25q-28 -5 -41 -24.5t-26 -40.5q-2 1 -4 1q-5 0 -8 -3t-7 -1q-20 -15 -37.5 -31t-36 -31.5t-38 -29t-42.5 -22.5q-2 -1 -11 -4.5t-11 -3.5
q-17 0 -25 9.5t-11 23t-4 28t-3 25.5q5 2 6 6t1 9l7 -1q11 0 15 4l19 19q11 11 22.5 21t22.5 20q35 31 72.5 60t72.5 59l10 22q5 11 18 14q-1 3 -1 7q0 10 6.5 13.5t12.5 8.5q0 3 -0.5 5.5t-0.5 4.5q0 10 4 18.5t4 14.5q0 8 -8.5 7.5t-13.5 -0.5q-22 21 -48 36.5t-53 31
t-52 32.5t-44 40q-3 2 -10 2q-8 0 -12 -2q-30 25 -71.5 38.5t-78.5 25.5q-7 18 -20 33.5t-13 36.5q0 15 7 24.5t17.5 14.5t23.5 7t25 3q0 -7 2.5 -10t0.5 -11q17 -8 31.5 -16t28.5 -14.5t30 -11t36 -5.5q29 -21 60.5 -36t57.5 -39h18q8 -12 15.5 -21.5t24.5 -7.5
q2 -14 9 -22t16.5 -13.5t20.5 -9.5t21 -9q10 -1 11.5 -9t7.5 -13q21 -3 43 -3t43 -7q7 -2 11 -6.5t8 -8.5t9.5 -6.5t14.5 -0.5q11 -13 11 -31zM566 282q0 -14 -3.5 -28.5t-12.5 -25.5q-3 -3 -10 -4.5t-12 -5.5q-7 -5 -10.5 -14t-10.5 -15q-5 -4 -10.5 -5.5t-11.5 -5.5
q-12 -8 -23 -20t-23 -23q-9 -8 -20.5 -15.5t-23.5 -15t-22.5 -15.5t-16.5 -18q-15 0 -24 -6.5t-16.5 -15t-16 -15.5t-21.5 -9q-7 -8 -13 -14t-9 -15q-19 -4 -36.5 -7.5t-37.5 -3.5h-8q-12 14 -20 32t-8 36q0 21 6 29.5t12.5 12t11 6t1.5 13.5q17 4 34.5 14t34.5 7
q25 21 46.5 41t53.5 31q0 10 7.5 17t16 14t16 14t7.5 16q0 4 -3.5 5t-4.5 6q-3 7 -11 7.5t-14 -0.5q-15 16 -32 30t-37 24q-8 4 -16 5.5t-15 5.5q-11 5 -22.5 14.5t-21.5 16.5q-24 17 -47 32.5t-49 29.5q1 10 -4.5 13.5t-5.5 11.5q-10 -2 -12 -2q-9 0 -15.5 5t-12.5 11
t-12 12.5t-14 9.5q0 11 -1.5 23t-1.5 24q6 12 15.5 19t10.5 24q23 -2 41.5 -10t39.5 -19q5 -15 16 -24t23.5 -16.5t24.5 -15t19 -20.5q15 -4 28.5 -12.5t26.5 -17.5t26.5 -16.5t29.5 -10.5q3 -5 7 -10.5t7 -10.5q2 1 5 1.5t5 0.5q5 0 9 -2q6 -12 17 -19t22.5 -13t23 -12.5
t19.5 -16.5q4 0 7 0.5t7 0.5q12 0 21.5 -4t17.5 -9t16 -8.5t17 -1.5q5 -6 11 -10.5t10 -11.5q1 -6 1.5 -12.5t0.5 -12.5z" />
    </font>
</defs>
</svg>
